Welcome Guest ( Log In | Register )

> Pronostic - Chaotic Upheaval (2023), Technical/Melodic Death Metal
post May 10 2023, 14:21:52
Post #1

Serial Uploader
Group Icon
Group: V.I.P
Posts: 42,367
Releases: 40437
From: Lithuania
On Forums: 15 years 10 months
Thanks: 516442 time(s)
Lithuania


(IMG:https://metalarea.org/images/audiocovers/2023_May/acov_tid381279_thumb.jpg)

*Artist: Pronostic
*Album: Chaotic Upheaval
*Year: 2023
*Genre: Technical/Melodic Death Metal
*Country: Canada (IMG:https://metalarea.org/forum/style_images/flags/Canada.png)
*Format: mp3@CBR320kbps
*Size: 92MB

Tracklist:
1. Indefinite Continuity 04:05
2. Massive Disillusion 04:01
3. Conclusion Impromptue 04:28
4. Concealed Parasite 04:06
5. Waves 02:44
6. Bare And Wretched 03:37
7. L'impureté Globale 04:01
8. Drained By Remorse 04:08
9. The Pure Celestial Being 03:43
10. Abstract Entity 04:43
******************************
Total playing time: 39:36

(IMG:https://metalarea.org/images/myspace.png)



(IMG:https://metalarea.org/images/youtube.png)

Technical info
(IMG:https://metalarea.org/images/spectrogram/2023_May/14389fb1ee6bc2446dd3345bfb4a124d.png)
Input File: 02. Massive Disillusion.mp3
Channels : 2
Sample Rate : 44100
Precision : 16-bit
Duration : 00:04:01.00 = 10628100 samples = 18075 CDDA sectors
File Size : 9.81M
Bit Rate : 326k
Sample Encoding: MPEG audio (layer I, II or III)
Comments :
Title=Massive Disillusion
Artist=Pronostic
Album=Chaotic Upheaval
Tracknumber=02
Year=2023
Genre=Technical Melodic Death, Black Metal
Discnumber=1



Register


Go to the top of the page
  Insert nick Quick quote
+Quote Post
 
Start new topic
Replies (1 - 3)
post May 15 2023, 16:24:32
Post #2

к приему виски готов
*********
Group: Металариец
Posts: 957
Releases: 3
From: Украина
On Forums: 15 years 1 month
Thanks: 565 time(s)
Ukraine


А альбом то вышел хорош. НЕ такой хитовый как в 2012, но очень добротный материал, странно, что комментов нуль. (IMG:style_emoticons/default/13.gif)
Go to the top of the page
  Insert nick Quick quote
+Quote Post
post May 29 2023, 20:19:00
Post #3

Морской Волк
*******
Group: Металариец
Posts: 788
Releases: 0
From: Питер
On Forums: 15 years 6 months
Thanks: 426 time(s)
Russian Federation


Дык и тот был ни рыба ни мясо, посему и комментов нету.
Go to the top of the page
  Insert nick Quick quote
+Quote Post
post May 29 2023, 20:57:40
Post #4
BAN
Banned till
Aug 13 273792724, 19:46:46



ЦИТАТА(скептик @ May 15 2023, 16:24:32) *
А альбом то вышел хорош. НЕ такой хитовый как в 2012, но очень добротный материал, странно, что комментов нуль. (IMG:style_emoticons/default/13.gif)

Хитов нет. По стилю - Франкенштейн какой-то. Фьюжн резко переходит в MDM, потом подключается кусок в стиле Дани Недофилта, потом опять что-то проговое секунд на 10-15. "Мсье, вы сбиваете с ритма весь Париж!"


Go to the top of the page
  Insert nick Quick quote
+Quote Post

Reply to this topicStart new topic
1 User(s) are reading this topic (1 Guests and 0 Anonymous Users)
0 Members:

 



- Lo-Fi Version Support form
Copyrights and abuse reports form
Time is now: 16th April 2024 - 09:41:57