Welcome Guest ( Log In | Register )

Объявления

* gmail.com упорно продолжает считать почту с нас "unsolicited" и отбивает в том числе и письма активации, поэтому просьба использовать альтернативные почтовые ящики.
------------
* gmail.com continues reject all mail from us as "unsolicited" (activation mails too) therefore please use alternate mail servers.
 
Reply to this topicStart new topic
> Rotten Scandinavian Bastards - Caprine Aggression [ep] (2022), Heavy Metal/Rock
post May 13 2023, 09:51:49
Post #1

Слесаръ 6-го разряда.
******
Group: Металариец
Posts: 665
Releases: 387
From: Беларусь, Минск.
On Forums: 12 years 5 months
Thanks: 3896 time(s)
Belarus


(IMG:https://metalarea.org/images/audiocovers/2023_May/acov_tid381452_thumb.jpg)

*Artist: Rotten Scandinavian Bastards
*Album: Caprine Aggression [ep]
*Year: 2022
*Genre: Heavy Metal/Rock
*Country: Sweden (IMG:https://metalarea.org/forum/style_images/flags/Sweden.png)
*Format: mp3@CBR320kbps
*Size: 25MB

Tracklist:
1. Fields of Dying (World Becomes Fire) 05:52
2. King of Swines (A Tribute to Meat) 03:51
******************************
Total playing time: 9:43



Technical info
(IMG:https://metalarea.org/images/spectrogram/2023_May/376502f2902509016dfc4500e2ae567b.png)
Input File: Rotten Scandinavian Bastards - Caprine Aggression - 01 Fields of Dying(World Becomes Fire).mp3
Channels : 2
Sample Rate : 44100
Precision : 16-bit
Duration : 00:05:52.07 = 15526331 samples = 26405.3 CDDA sectors
File Size : 14.2M
Bit Rate : 323k
Sample Encoding: MPEG audio (layer I, II or III)
Comments :
Title=Fields of Dying(World Becomes Fire)
Artist=Rotten Scandinavian Bastards
Album=Caprine Aggression
Tracknumber=1
Year=2022



Register


Go to the top of the page
  Insert nick Quick quote
+Quote Post

Reply to this topicStart new topic
1 User(s) are reading this topic (1 Guests and 0 Anonymous Users)
0 Members:

 



- Lo-Fi Version Support form
Copyrights and abuse reports form
Time is now: 24th May 2024 - 20:46:39