Welcome Guest ( Log In | Register )

 
Reply to this topicStart new topic
> Perpetual Paranoia - The Wave (2023), Heavy/Thrash Metal (D4)
post May 13 2023, 11:59:00
Post #1

Правь статус, ####!111
**************
Group: Металариец
Posts: 8,670
Releases: 6917
On Forums: 13 years 5 months
Thanks: 121354 time(s)
Italy


(IMG:https://metalarea.org/images/audiocovers/2023_May/acov_tid381454_thumb.jpg)

*Artist: Perpetual Paranoia
*Album: The Wave
*Year: 2023
*Genre: Heavy/Thrash Metal
*Country: United States (IMG:https://metalarea.org/forum/style_images/flags/United%20States.png)
*Format: mp3@CBR320kbps
*Size: 158MB

Tracklist:
01.Immortal (feat.Benlio Bussinguer) 02:24
02.The Wave 05:10
03.Everybodies Gone 05:25
04.Cornestone 05:18
05.Up the golden shore (feat.Eduardo Ardanuy Dr. Sin & Benlio Bussinguer) 05:56
06.Flesh n Metal (feat.Benlio Bussinguer) 02:25
07.Travail 05:51
08.About to crack the sky (feat.Oz Fox Stryper) 05:51
09.We are the few (feat. Troy Thompson Bride) 05:54
10.Burn for glory (feat.Roger Santos) 06:23
11.Unjust and the just 05:24
12.God hates a coward 05:33
13.Fourth Revolution (feat.Eduardo Ardanuy Dr. Sin & Benlio Bussinguer) 05:53
******************************
Total playing time: 1:07:27

(IMG:https://metalarea.org/images/youtube.png)

Technical info
(IMG:https://metalarea.org/images/spectrogram/2023_May/9a21ad86b4ea0c06e8206bc25d29d834.png)
Input File: 2.The Wave.mp3
Channels : 2
Sample Rate : 44100
Precision : 16-bit
Duration : 00:05:10.80 = 13706236 samples = 23309.9 CDDA sectors
File Size : 12.8M
Bit Rate : 328k
Sample Encoding: MPEG audio (layer I, II or III)
Comments :
Title=The Wave
Artist=Perpetual Paranoia
Album=The Wave
Tracknumber=2/13
Year=2023
Discnumber=1/1



Register


Go to the top of the page
  Insert nick Quick quote
+Quote Post

Reply to this topicStart new topic
1 User(s) are reading this topic (1 Guests and 0 Anonymous Users)
0 Members:

 



- Lo-Fi Version Support form
Copyrights and abuse reports form
Time is now: 19th April 2024 - 23:36:44