Welcome Guest ( Log In | Register )

Объявления

* gmail.com упорно продолжает считать почту с нас "unsolicited" и отбивает в том числе и письма активации, поэтому просьба использовать альтернативные почтовые ящики.
------------
* gmail.com continues reject all mail from us as "unsolicited" (activation mails too) therefore please use alternate mail servers.
> Panzerkrieg 666 - Wolfpack [ep] (2023), Black Metal
post May 14 2023, 00:22:56
Post #1

Правь статус, ####!111
**************
Group: Металариец
Posts: 9,101
Releases: 7337
On Forums: 13 years 6 months
Thanks: 129216 time(s)
Italy


(IMG:https://metalarea.org/images/audiocovers/2023_May/acov_tid381487_thumb.jpg)

*Artist: Panzerkrieg 666
*Album: Wolfpack [ep]
*Year: 2023
*Genre: Black Metal
*Country: Germany (IMG:https://metalarea.org/forum/style_images/flags/Germany.png)
*Format: mp3@CBR320kbps
*Size: 45MB

Tracklist:
1.Flamethrower 41 02:50
2.My Lai Massacre 04:18
3.Blitzkrieg Inferno 02:29
4.Ascension 03:08
5.Wolfpack 05:28
******************************
Total playing time: 18:13



Technical info
(IMG:https://metalarea.org/images/spectrogram/2023_May/6a628b7017211c5893c528f5966c8594.png)
Input File: 04. Ascension.mp3
Channels : 2
Sample Rate : 44100
Precision : 16-bit
Duration : 00:03:09.01 = 8335297 samples = 14175.7 CDDA sectors
File Size : 8.13M
Bit Rate : 344k
Sample Encoding: MPEG audio (layer I, II or III)
Comments :
Title=Ascension
Artist=Panzerkrieg 666
Album=Wolfpack
Tracknumber=04
Year=2023
Genre=Metal



Register


Go to the top of the page
  Insert nick Quick quote
+Quote Post
 
Start new topic
Replies (1 - 1)
post May 17 2023, 15:24:19
Post #2

0%Tolerance
**************
Group: Металариец
Posts: 2,987
Releases: 0
On Forums: 11 years 9 months
Thanks: 572 time(s)
Unknown


Послушать разок - норм и без слюней, если ч0.
Go to the top of the page
  Insert nick Quick quote
+Quote Post

Reply to this topicStart new topic
1 User(s) are reading this topic (1 Guests and 0 Anonymous Users)
0 Members:

 



- Lo-Fi Version Support form
Copyrights and abuse reports form
Time is now: 17th June 2024 - 11:06:56