Welcome Guest ( Log In | Register )

Объявления

* gmail.com упорно продолжает считать почту с нас "unsolicited" и отбивает в том числе и письма активации, поэтому просьба использовать альтернативные почтовые ящики.
------------
* gmail.com continues reject all mail from us as "unsolicited" (activation mails too) therefore please use alternate mail servers.
 
Reply to this topicStart new topic
> Nefarious Vermin - Abolition Of Tradition (2023), Death Metal/Crust
post May 18 2023, 11:51:08
Post #1

Serial Uploader
Group Icon
Group: V.I.P
Posts: 42,805
Releases: 40868
From: Lithuania
On Forums: 16 years 2 weeks
Thanks: 524542 time(s)
Lithuania


(IMG:https://metalarea.org/images/audiocovers/2023_May/acov_tid381674_thumb.jpg)

*Artist: Nefarious Vermin
*Album: Abolition Of Tradition
*Year: 2023
*Genre: Death Metal/Crust
*Country: Slovenia (IMG:https://metalarea.org/forum/style_images/flags/Slovenia.png)
*Format: mp3@CBR320kbps
*Size: 54MB

Tracklist:
1. Intellectual Deficiency 01:32
2. Perpetual War 03:17
3. Malordous Miasma 03:30
4. Abolition Of Tradition 02:25
5. Sharpen The Guillotine 02:39
6. Mortality Salience 03:00
7. Revel In The Annihilation Of Man 02:37
8. Urine Tomb 03:41
******************************
Total playing time: 22:41



(IMG:https://metalarea.org/images/youtube.png)

Technical info
(IMG:https://metalarea.org/images/spectrogram/2023_May/98488bf50bb64c22b3541234eb1406bd.png)
Input File: 02. Perpetual War.mp3
Channels : 2
Sample Rate : 44100
Precision : 16-bit
Duration : 00:03:17.68 = 8717644 samples = 14825.9 CDDA sectors
File Size : 8.12M
Bit Rate : 329k
Sample Encoding: MPEG audio (layer I, II or III)
Comments :
Title=Perpetual War
Artist=Nefarious Vermin
Album=Abolition Of Tradition
Tracknumber=2
Year=2023



Register


Go to the top of the page
  Insert nick Quick quote
+Quote Post

Reply to this topicStart new topic
1 User(s) are reading this topic (1 Guests and 0 Anonymous Users)
0 Members:

 



- Lo-Fi Version Support form
Copyrights and abuse reports form
Time is now: 24th June 2024 - 08:17:12