Welcome Guest ( Log In | Register )

Объявления

* gmail.com упорно продолжает считать почту с нас "unsolicited" и отбивает в том числе и письма активации, поэтому просьба использовать альтернативные почтовые ящики.
------------
* gmail.com continues reject all mail from us as "unsolicited" (activation mails too) therefore please use alternate mail servers.
> The Ocean - Holocene (2023), Progressive/Sludge/Post-Metal (D)
post May 18 2023, 13:27:58
Post #1

Serial Uploader
Group Icon
Group: V.I.P
Posts: 42,601
Releases: 40667
From: Lithuania
On Forums: 15 years 11 months
Thanks: 521335 time(s)
Lithuania


(IMG:https://metalarea.org/images/audiocovers/2023_May/acov_tid381684_thumb.jpg)

*Artist: The Ocean
*Album: Holocene
*Year: 2023
*Genre: Progressive/Sludge/Post-Metal
*Country: Germany (IMG:https://metalarea.org/forum/style_images/flags/Germany.png)
*Format: mp3@CBR320kbps
*Size: 123MB

Tracklist:
01. Preboreal 5:04
02. Boreal 3:41
03. Sea of Reeds 5:48
04. Atlantic 8:49
05. Subboreal 4:46
06. Unconformities 9:09
07. Parabiosis 8:12
08. Subatlantic 6:55
******************************
Total playing time: 52:24


Preview 2

(IMG:https://metalarea.org/images/youtube.png)

Technical info
(IMG:https://metalarea.org/images/spectrogram/2023_May/73722c4e6b775b7e0791cb42201a0a36.png)
Input File: 02 - Boreal.mp3
Channels : 2
Sample Rate : 44100
Precision : 16-bit
Duration : 00:03:41.27 = 9757963 samples = 16595.2 CDDA sectors
File Size : 9.32M
Bit Rate : 337k
Sample Encoding: MPEG audio (layer I, II or III)
Comments :
Title=Boreal
Artist=The Ocean
Album=Holocene
Tracknumber=02/08
Year=2023
Discnumber=1/1



Register


Go to the top of the page
  Insert nick Quick quote
+Quote Post
2 Pages V  < 1 2  
Start new topic
Replies (30 - 34)
post Jun 21 2023, 11:05:39
Post #31

практики шума одухотворяющего
**************
Group: Металариец
Posts: 4,116
Releases: 156
From: хроник дисмембера
On Forums: 6 years 4 months
Thanks: 7053 time(s)
Russian Federation


ЦИТАТА(Genuine Thrashiac @ Jun 21 2023, 13:28:56) *
Интересно, почему над десятым (10!)? Вот в випедии написано, что студийный альбом девятый:
https://en.wikipedia.org/wiki/Holocene_(album)



Они Fluxion 2004 го года перезаписали. В 2009м выпустили.


Thanks:
(1) Yarri,
Go to the top of the page
  Insert nick Quick quote
+Quote Post
post Jun 21 2023, 11:34:39
Post #32

21st Century Schizoid Man
**************
Group: Металариец
Posts: 8,447
Releases: 317
From: 1984
On Forums: 16 years 3 weeks
Thanks: 9402 time(s)
Unknown


ЦИТАТА(Genuine Thrashiac @ Jun 21 2023, 12:28:56) *
И мне интересно, а почему группа до сих про не представлена на metal-archives? (IMG:style_emoticons/default/smile2.gif)

Вообще непонятно. (IMG:style_emoticons/default/6.gif)
Go to the top of the page
  Insert nick Quick quote
+Quote Post
post Jun 21 2023, 21:32:03
Post #33

Ёлд ХеллоВяйне
Group Icon
Group: V.I.P
Posts: 34,830
Releases: 143
From: Питер
On Forums: 17 years 7 months
Thanks: 21974 time(s)
Russian Federation


QUOTE(Genuine Thrashiac @ 21st June 2023 - 12:28:56) *
И мне интересно, а почему группа до сих про не представлена на metal-archives?


Я, может, не выкупил что-то, но вот же:

https://www.metal-archives.com/bands/The_Oc...ollective/25189


Thanks:
(1) Yarri,
Go to the top of the page
  Insert nick Quick quote
+Quote Post
post Jun 21 2023, 21:45:05
Post #34

а ты попал в даунтаун
***********
Group: Металариец
Posts: 1,806
Releases: 66
From: Москва
On Forums: 15 years 1 month
Thanks: 5010 time(s)
Russian Federation


ЦИТАТА(Genuine Thrashiac @ 21st June 2023 - 12:28:56) *
Интересно, почему над десятым (10!)? Вот в випедии написано, что студийный альбом девятый:
Phanerozoic типа один альбом в двух главах потому что. Но можно посчитать их и как два альбома. Вот и разница.
Go to the top of the page
  Insert nick Quick quote
+Quote Post
post Jun 24 2023, 02:13:10
Post #35

https://rateyourmusic.com/~Ghostb
**************
Group: Металариец
Posts: 2,777
Releases: 0
From: Харьков
On Forums: 14 years 8 months
Thanks: 1383 time(s)
Ukraine


ЦИТАТА(mirotvorets @ Jun 2 2023, 14:42:34) *
У него есть оркестрово-кинематографический чисто электронный проект SHRVL, имеющий непосредственное отношение к этому альбому, и являющийся то ли его продолжением, то ли отражением

Спасибо за наводку, крайне интересно было послушать. Действительно годный релиз, после которого становится ясно, что без участия Peter Voigtmann последний альбом потерял бы половину своего очарования (если вообще был бы возможен). Хочу продолжения, в общем)


Thanks:
(1) Yarri,
Go to the top of the page
  Insert nick Quick quote
+Quote Post

2 Pages V  < 1 2
Reply to this topicStart new topic
2 User(s) are reading this topic (2 Guests and 0 Anonymous Users)
0 Members:

 



- Lo-Fi Version Support form
Copyrights and abuse reports form
Time is now: 28th May 2024 - 01:42:45