Welcome Guest ( Log In | Register )

> Zelator - Miss Death [compilation] (2023), Death/Doom Metal
post May 19 2023, 08:15:12
Post #1

Сволочь обыкновенная
**************
Group: Металариец
Posts: 3,332
Releases: 274
From: Брест
On Forums: 15 years 7 months
Thanks: 6483 time(s)
Belarus


(IMG:https://metalarea.org/images/audiocovers/2023_May/acov_tid381744_thumb.jpg)

*Artist: Zelator
*Album: Miss Death [compilation]
*Year: 2023
*Genre: Death/Doom Metal
*Country: Russian Federation (IMG:https://metalarea.org/forum/style_images/flags/Russian%20Federation.png)
*Format: mp3@CBR320kbps
*Size: 103MB

Tracklist:
Miss Death (1993):
01. Intro 00:43
02. Дикое расчленение 02:47
03. Рождённый убивать 02:31
04. Мисс Смерть 05:07
05. Сон гинеколога 03:41
06. Лики смерти 01:59
07. Любим... 04:11
Рождение Гада (Demo 1991):
08. Рождение гада 03:12
09. Нацисты 01:47
10. От..хай девку 02:19
11. Чёрный ворон 01:32
12. Корявые зубы... 01:48
13. Kill my girl 00:37
14. Лики смерти 01:21
15. Лепрозорий 02:26
16. Разлагайся, но живи 02:31
17. Апокалипсис 02:10
18. Симфония блевоты 01:00
19. Zelator 00:24
******************************
Total playing time: 42:06

Extended info
Наконец вышла долгожданная антология Zelator - впервые на СD и в официальном виде, и, конечно, на Metal Race. Команда получила всеСНГщную известность после выпуска трeка Miss Death на Трэш Твою Мать Vol. 1 (Compilation).
"Новый релиз Metal Race!! Zelator - Miss Death - долгожданное переиздание альбома легендарной московской Death Metal группы. Релиз выполнен со студийных пленок! Звук прошел тщательную реставрацию и бережный мастеринг на студии Lykantropia Studio. В качестве бонуса к альбому мы использовали демо 1991го года "Рождение Гада". Релиз станет настоящим подарком для всех фанатов Death Metal в целом и коллекционерам отечественного андеграунда в частности! " Metalrace ©

На Metal Race можно приобрести дигипак или скачать бесплатно в любимом формате в режиме "Name Your Price"/


Technical info
(IMG:https://metalarea.org/images/spectrogram/2023_May/eff86f372580464a47f07329a9394100.png)
Input File: 02 - Дикое расчленение.mp3
Channels : 2
Sample Rate : 44100
Precision : 16-bit
Duration : 00:02:47.82 = 7400818 samples = 12586.4 CDDA sectors
File Size : 6.82M
Bit Rate : 325k
Sample Encoding: MPEG audio (layer I, II or III)
Comments :
Title=Дикое расчленение
Artist=Zelator
Album=Zelator - Miss Death
Tracknumber=2
Year=2023



Register


Go to the top of the page
  Insert nick Quick quote
+Quote Post
 
Start new topic
Replies (1 - 9)
post May 19 2023, 10:43:55
Post #2

Правь статус, ####!111
**************
Group: Металариец
Posts: 54,911
Releases: 1101
On Forums: 14 years 6 months
Thanks: 52875 time(s)
Russian Federation


Обожаю кроважадно-садисткие и бескомпромиссна-жестокие названия песен у ранне пост советских метал групп. (IMG:style_emoticons/default/25.gif)


Thanks:
Go to the top of the page
  Insert nick Quick quote
+Quote Post
post May 19 2023, 10:54:17
Post #3

Подвал
**************
Group: Металариец
Posts: 19,597
Releases: 11246
From: Far East (Khabarovsk)
On Forums: 14 years 10 months
Thanks: 133275 time(s)
Russian Federation


Тож хотел запостить, но припоздал)) Зеркало:
Register


Thanks:
Go to the top of the page
  Insert nick Quick quote
+Quote Post
post May 19 2023, 11:33:53
Post #4

Два Литра
**
Group: Завсегдатай
Posts: 108
Releases: 0
From: Сыктывкар
On Forums: 6 years 5 months
Thanks: 24 time(s)
Russian Federation


Это не они случайно к нам в Сыктывкар приезжали? в доме авиаторов концерт был... в девяносто бородатом году...
Go to the top of the page
  Insert nick Quick quote
+Quote Post
post May 19 2023, 12:07:33
Post #5
BAN
Banned till
Aug 13 273792724, 19:46:46



"легендарные московские Death metal группы" – это какой-то оксюморон.
Или просто moron, я не уверен.
Go to the top of the page
  Insert nick Quick quote
+Quote Post
post May 19 2023, 14:37:40
Post #6

Сволочь обыкновенная
**************
Group: Металариец
Posts: 3,332
Releases: 274
From: Брест
On Forums: 15 years 7 months
Thanks: 6483 time(s)
Belarus


ЦИТАТА(spbfucker @ 19th May 2023 - 14:07:33) *
"легендарные московские Death metal группы" – это какой-то оксюморон.
Или просто moron, я не уверен.

Все команды выпустившие хоть что-то толковое до середины 90-х в постсовковом UG автоматически попадают по тэг "легендарный" вне зависимости от места нахождения)
Go to the top of the page
  Insert nick Quick quote
+Quote Post
post May 19 2023, 14:44:01
Post #7
BAN
Banned till
Aug 13 273792724, 19:46:46



ЦИТАТА(spazm @ May 19 2023, 14:37:40) *
Все команды выпустившие хоть что-то толковое до середины 90-х в постсовковом UG автоматически попадают по тэг "легендарный" вне зависимости от места нахождения)

А, понял.
Я думал, тут как с "культовыми порнофильмами" у Пелевина
Go to the top of the page
  Insert nick Quick quote
+Quote Post
post May 19 2023, 15:07:21
Post #8

Два Литра
**
Group: Завсегдатай
Posts: 108
Releases: 0
From: Сыктывкар
On Forums: 6 years 5 months
Thanks: 24 time(s)
Russian Federation


не понял откуда взялось тут про "легендарные"
Go to the top of the page
  Insert nick Quick quote
+Quote Post
post May 19 2023, 15:11:32
Post #9

Сволочь обыкновенная
**************
Group: Металариец
Posts: 3,332
Releases: 274
From: Брест
On Forums: 15 years 7 months
Thanks: 6483 time(s)
Belarus


ЦИТАТА(BapeHuk @ 19th May 2023 - 17:07:21) *
не понял откуда взялось тут про "легендарные"

В дополнительной информации есть описание релиза от Metal Race
Go to the top of the page
  Insert nick Quick quote
+Quote Post
post May 19 2023, 15:14:41
Post #10
BAN
Banned till
Aug 13 273792724, 19:46:46



ЦИТАТА(BapeHuk @ May 19 2023, 15:07:21) *
не понял откуда взялось тут про "легендарные"

Я интуитивно почувствовал. прослушивая на BC.
А потом ещё и описалово глянул - и звёзды сошлись, ктулху проснулся, всем кабзда, ховайтесь в жито
Go to the top of the page
  Insert nick Quick quote
+Quote Post

Reply to this topicStart new topic
2 User(s) are reading this topic (2 Guests and 0 Anonymous Users)
0 Members:

 



- Lo-Fi Version Support form
Copyrights and abuse reports form
Time is now: 6th December 2023 - 02:02:28