Welcome Guest ( Log In | Register )

> Ockra - Gratitude (2023), Progressive Doom Metal
post May 26 2023, 02:42:40
Post #1

Правь статус, ####!111
**************
Group: Металариец
Posts: 35,617
Releases: 26512
From: Г.Харьков
On Forums: 11 years 11 months
Thanks: 573332 time(s)
Ukraine


(IMG:https://metalarea.org/images/audiocovers/2023_May/acov_tid382038_thumb.jpg)

*Artist: Ockra
*Album: Gratitude
*Year: 2023
*Genre: Progressive Doom Metal
*Country: Sweden (IMG:https://metalarea.org/forum/style_images/flags/Sweden.png)
*Format: mp3@CBR320kbps
*Size: 98MB

Tracklist:
1. Introspection 01:54
2. Weightless Again 08:37
3. Tree I Planted 06:25
4. Acceptance 05:49
5. We, Who Didn´t Know 07:08
6. Imorgon Här 06:02
7. Tage Wie Dieser 06:27
******************************
Total playing time: 42:22




Extended info
Jonas Nyström Drums, Vocals (backing)
See also: ex-Sulphur Dreams
Erik Björlinger Guitars
See also: ex-Sulphur Dreams
Alex Spielhaupter Vocals (lead), Bass
See also: ex-Sulphur Dreams


Technical info
(IMG:https://metalarea.org/images/spectrogram/2023_May/6211cf4e1f6aa7f1182222c67350bf25.png)
Input File: 07 - Tage Wie Dieser.mp3
Channels : 2
Sample Rate : 44100
Precision : 16-bit
Duration : 00:06:27.00 = 17066700 samples = 29025 CDDA sectors
File Size : 15.6M
Bit Rate : 323k
Sample Encoding: MPEG audio (layer I, II or III)
Comments :
Title=Tage Wie Dieser
Artist=Ockra
Album=Gratitude
Tracknumber=7
Year=2023-05-26
Genre=Metal
Discnumber=1



Register


Go to the top of the page
  Insert nick Quick quote
+Quote Post
 
Start new topic
Replies (1 - 1)
post May 26 2023, 06:31:43
Post #2

Литр
*
Group: Подсевший
Posts: 70
Releases: 17
From: Kyiv
On Forums: 14 years 9 months
Thanks: 351 time(s)
Ukraine


Группа из стоунера может выйти, а вот стоунер из группы - нет.
Go to the top of the page
  Insert nick Quick quote
+Quote Post

Reply to this topicStart new topic
1 User(s) are reading this topic (1 Guests and 0 Anonymous Users)
0 Members:

 



- Lo-Fi Version Support form
Copyrights and abuse reports form
Time is now: 21st April 2024 - 12:04:03