Welcome Guest ( Log In | Register )

 
Reply to this topicStart new topic
> Reasons Behind - Architecture Of An Ego (2023), Modern/Symphonic Metal (D4)
post May 26 2023, 06:18:02
Post #1

Правь статус, ####!111
**************
Group: Металариец
Posts: 8,238
Releases: 6492
On Forums: 13 years 3 months
Thanks: 113305 time(s)
Italy


(IMG:https://metalarea.org/images/audiocovers/2023_May/acov_tid382046_thumb.jpg)

*Artist: Reasons Behind
*Album: Architecture Of An Ego
*Year: 2023
*Genre: Modern/Symphonic Metal
*Country: Italy (IMG:https://metalarea.org/forum/style_images/flags/Italy.png)
*Format: mp3@CBR320kbps
*Size: 81MB

Tracklist:
01.Zero Dawn 01:33
02.The Fall of Human Race 04:14
03.A New Breed 03:17
04.Into The Break of a Better Day 03:25
05.Heart Begins to Break 04:00
06.The Phantom Pain 04:05
07.Seas of Grey 02:59
08.I³ 03:10
09.The Flame Inside 04:19
10.Letter to the Last of Us 03:17
******************************
Total playing time: 34:19



Technical info
(IMG:https://metalarea.org/images/spectrogram/2023_May/dc6fbb3c130db180662ba55350178e49.png)
Input File: 3.A New Breed.mp3
Channels : 2
Sample Rate : 44100
Precision : 16-bit
Duration : 00:03:17.34 = 8702826 samples = 14800.7 CDDA sectors
File Size : 8.23M
Bit Rate : 334k
Sample Encoding: MPEG audio (layer I, II or III)
Comments :
Title=A New Breed
Artist=Reasons Behind
Album=Architecture of an Ego
Tracknumber=3/10
Year=2023
Discnumber=1/1



Register


Go to the top of the page
  Insert nick Quick quote
+Quote Post

Reply to this topicStart new topic
1 User(s) are reading this topic (1 Guests and 0 Anonymous Users)
0 Members:

 



- Lo-Fi Version Support form
Copyrights and abuse reports form
Time is now: 23rd February 2024 - 11:34:40