Welcome Guest ( Log In | Register )

Объявления

* gmail.com упорно продолжает считать почту с нас "unsolicited" и отбивает в том числе и письма активации, поэтому просьба использовать альтернативные почтовые ящики.
------------
* gmail.com continues reject all mail from us as "unsolicited" (activation mails too) therefore please use alternate mail servers.
> Amun - Spectra And Obsession (2023), Atmospheric Black Metal
post May 26 2023, 07:38:14
Post #1

Правь статус, ####!111
**************
Group: Металариец
Posts: 35,953
Releases: 26795
From: Г.Харьков
On Forums: 12 years 2 weeks
Thanks: 581278 time(s)
Ukraine


(IMG:https://metalarea.org/images/audiocovers/2023_May/acov_tid382051_thumb.jpg)

*Artist: Amun
*Album: Spectra And Obsession
*Year: 2023
*Genre: Atmospheric Black Metal
*Country: United States (IMG:https://metalarea.org/forum/style_images/flags/United%20States.png)
*Format: mp3@CBR320kbps
*Size: 249MB

Tracklist:
1. The Father's Foundation 20:39
2. Forevermore And Always 11:27
3. Watch For Ghosts 09:14
4. Spectra And Obsession 20:49
5. The Mother's Mark 11:45
6. A Sickly Fruit Born Of Tragic Love 34:21
******************************
Total playing time: 1:48:15




Extended info
Joseph Neal Snodgrass Everything
See also: Xenolith
CJ Yacoub Drums, Vocals (2019-present)
See also: Canis Dirus, Escaping Aghartha, Neverdawn
Simon James Electronics, Soundscapes, Noise (2019-present)
Aidan Robinson Guitars, Vocals (2019-present)
Johnathon Nunn Guitars, Vocals (2019-present)


Technical info
(IMG:https://metalarea.org/images/spectrogram/2023_May/47ac5822177e06365dfb41f776e8da05.png)
Input File: 05 - The Mother\'s Mark.mp3
Channels : 2
Sample Rate : 44100
Precision : 16-bit
Duration : 00:11:45.00 = 31090500 samples = 52875 CDDA sectors
File Size : 28.4M
Bit Rate : 323k
Sample Encoding: MPEG audio (layer I, II or III)
Comments :
Title=The Mother's Mark
Artist=Amun
Album=Spectra And Obsession
Tracknumber=5
Year=2023-05-26
Genre=Metal
Discnumber=1



Register


Go to the top of the page
  Insert nick Quick quote
+Quote Post
 
Start new topic
Replies (1 - 3)
post May 28 2023, 12:29:39
Post #2

Шесть Литров
******
Group: Металариец
Posts: 591
Releases: 1
On Forums: 17 years 1 month
Thanks: 54 time(s)
Russian Federation


сложно, но пойдет.
Go to the top of the page
  Insert nick Quick quote
+Quote Post
post Jul 26 2023, 05:31:38
Post #3

i listen to black metal
**************
Group: Металариец
Posts: 4,090
Releases: 150
From: Москва
On Forums: 17 years 5 months
Thanks: 2629 time(s)
Russian Federation


для кого написано: Experimental folk black metal for the apocalypse?
Go to the top of the page
  Insert nick Quick quote
+Quote Post
post Nov 15 2023, 15:57:00
Post #4

Правь статус, ####!111
**************
Group: Металариец
Posts: 2,550
Releases: 419
From: Bretagne
On Forums: 16 years 1 week
Thanks: 5116 time(s)
France


atmospheric & experimental post-black metal
Go to the top of the page
  Insert nick Quick quote
+Quote Post

Reply to this topicStart new topic
1 User(s) are reading this topic (1 Guests and 0 Anonymous Users)
0 Members:

 



- Lo-Fi Version Support form
Copyrights and abuse reports form
Time is now: 27th May 2024 - 22:29:37