Welcome Guest ( Log In | Register )

> Sulphuric Night - Black Metal Tyranny [ep] (2023), Black Metal (D)
post May 26 2023, 07:38:54
Post #1

Absorbence
**************
Group: Металариец
Posts: 2,553
Releases: 670
From: Vastland Abyss of Cthulhu
On Forums: 17 years 3 months
Thanks: 11194 time(s)
United States


(IMG:https://metalarea.org/images/audiocovers/2023_May/acov_tid382052_thumb.jpg)

*Artist: Sulphuric Night
*Album: Black Metal Tyranny [ep]
*Year: 2023
*Genre: Black Metal
*Country: Bosnia and Herzegovina (IMG:https://metalarea.org/forum/style_images/flags/Bosnia%20and%20Herzegovina.png)
*Format: mp3@CBR320kbps
*Size: 19MB

Tracklist:
1. Black Metal Tyranny 05:20
2. As Death Inhales All (Black Winds of Suffering) 05:06
******************************
Total playing time: 10:26

(IMG:https://metalarea.org/images/youtube.png)

Technical info
(IMG:https://metalarea.org/images/spectrogram/2023_May/8797d313a57878f568828a53b38db866.png)
Input File: 01. Black Metal Tyranny.mp3
Channels : 2
Sample Rate : 44100
Precision : 16-bit
Duration : 00:05:16.32 = 13949536 samples = 23723.7 CDDA sectors
File Size : 10.6M
Bit Rate : 267k
Sample Encoding: MPEG audio (layer I, II or III)
Comments :
Title=Black Metal Tyranny
Artist=Sulphuric Night
Album=Black Metal Tyranny
Tracknumber=01/02
Year=2023
Genre=Raw Black Metal



Register


Go to the top of the page
  Insert nick Quick quote
+Quote Post
 
Start new topic
Replies (1 - 1)
post Jun 10 2023, 21:16:27
Post #2

кручу наждак
**************
Group: Металариец
Posts: 6,429
Releases: 109
From: Самара
On Forums: 13 years 9 months
Thanks: 4968 time(s)
Russian Federation


Понравилось грамотное сочетание сурового мелодизма, сырого звука и грубого, почти дэтового вокала. Сгодится в качестве замены совсем пропавших из вида Totale Vernichtung и Owl's Blood.
Go to the top of the page
  Insert nick Quick quote
+Quote Post

Reply to this topicStart new topic
1 User(s) are reading this topic (1 Guests and 0 Anonymous Users)
0 Members:

 



- Lo-Fi Version Support form
Copyrights and abuse reports form
Time is now: 1st March 2024 - 11:44:06