Welcome Guest ( Log In | Register )

Объявления

* gmail.com упорно продолжает считать почту с нас "unsolicited" и отбивает в том числе и письма активации, поэтому просьба использовать альтернативные почтовые ящики.
------------
* gmail.com continues reject all mail from us as "unsolicited" (activation mails too) therefore please use alternate mail servers.
> Karner - Berg Wocht [ep] (2023), Black Metal
post May 28 2023, 20:57:32
Post #1

Правь статус, 616
**************
Group: Металариец
Posts: 10,768
Releases: 8771
From: 55°35’N 38°08’E
On Forums: 15 years 10 months
Thanks: 155996 time(s)
Russian Federation


(IMG:https://metalarea.org/images/audiocovers/2023_May/acov_tid382144_thumb.jpg)

*Artist: Karner
*Album: Berg Wocht [ep]
*Year: 2023
*Genre: Black Metal
*Country: Austria (IMG:https://metalarea.org/forum/style_images/flags/Austria.png)
*Format: mp3@CBR320kbps
*Size: 70MB

Tracklist:
1.Berg Wocht 11:05
2.Am Gräbaföld 09:02
3.Jesus' Tod (Burzum Cover) 09:33
******************************
Total playing time: 29:40



(IMG:https://metalarea.org/images/youtube.png)

Technical info
(IMG:https://metalarea.org/images/spectrogram/2023_May/a27118d4341d84b652883dd11990ee56.png)
Input File: 01 Berg Wocht.mp3
Channels : 2
Sample Rate : 44100
Precision : 16-bit
Duration : 00:11:05.88 = 29365088 samples = 49940.6 CDDA sectors
File Size : 26.8M
Bit Rate : 321k
Sample Encoding: MPEG audio (layer I, II or III)
Comments :
Title=Berg Wocht
Artist=Karner
Album=Berg Wocht
Tracknumber=1
Year=2023
Genre=Black Metal



Register


Go to the top of the page
  Insert nick Quick quote
+Quote Post
 
Start new topic
Replies (1 - 2)
post Jul 26 2023, 05:58:14
Post #2

i listen to black metal
**************
Group: Металариец
Posts: 4,090
Releases: 150
From: Москва
On Forums: 17 years 5 months
Thanks: 2629 time(s)
Russian Federation


приятненько)))))
Go to the top of the page
  Insert nick Quick quote
+Quote Post
post Nov 15 2023, 16:53:59
Post #3

Правь статус, ####!111
**************
Group: Металариец
Posts: 2,550
Releases: 419
From: Bretagne
On Forums: 16 years 1 week
Thanks: 5117 time(s)
France


good atmospheric, epic & spiritual black metal , reminds me Angantyr
Go to the top of the page
  Insert nick Quick quote
+Quote Post

Reply to this topicStart new topic
1 User(s) are reading this topic (1 Guests and 0 Anonymous Users)
0 Members:

 



- Lo-Fi Version Support form
Copyrights and abuse reports form
Time is now: 27th May 2024 - 23:07:42