Welcome Guest ( Log In | Register )

 
Reply to this topicStart new topic
> Necrosynthesys - Congregation Of The Wicked (2022), Experimental Black/Gothic Metal
post May 29 2023, 01:09:14
Post #1

Правь статус, 616
**************
Group: Металариец
Posts: 10,081
Releases: 8184
From: 55°35’N 38°08’E
On Forums: 15 years 5 months
Thanks: 145117 time(s)
Russian Federation


(IMG:https://metalarea.org/images/audiocovers/2023_May/acov_tid382149_thumb.jpg)

*Artist: Necrosynthesys
*Album: Congregation Of The Wicked
*Year: 2022
*Genre: Experimental Black/Gothic Metal
*Country: Germany (IMG:https://metalarea.org/forum/style_images/flags/Germany.png)
*Format: mp3@CBR320kbps
*Size: 99MB

Tracklist:
1.Nightmare 02:37
2.The Truth About Devil's Drugs 03:15
3.Okkult 01:53
4.Tears Like Water 04:36
5.Kellertonerzeuger 02:23
6.On the Creation 03:24
7.Frostbite 02:28
8.Er Kommt 04:19
9.Geisterhaft 04:34
10.Satan's Cold Hand 02:39
11.The Great Fish 03:16
12.Hungarian Dance 02:20
13.Schatten 01:59
14.Marsch Nach Süden 02:22
******************************
Total playing time: 42:05

(IMG:https://metalarea.org/images/youtube.png)
Discogs

Extended info
FLAC-Rip (scene)


Technical info
(IMG:https://metalarea.org/images/spectrogram/2023_May/008652a9cf282161e85e8cf6bd793707.png)
Input File: 04 Tears like water.mp3
Channels : 2
Sample Rate : 44100
Precision : 16-bit
Duration : 00:04:36.58 = 12197002 samples = 20743.2 CDDA sectors
File Size : 11.2M
Bit Rate : 325k
Sample Encoding: MPEG audio (layer I, II or III)
Comments :
Title=Tears like water
Artist=Necrosynthesys
Album=Congregation Of The Wicked
Tracknumber=4/14/14
Year=2022
Genre=Black Metal
Discnumber=1/1



Register


Go to the top of the page
  Insert nick Quick quote
+Quote Post
post May 29 2023, 01:26:20
Post #2

Правь статус, 616
**************
Group: Металариец
Posts: 10,081
Releases: 8184
From: 55°35’N 38°08’E
On Forums: 15 years 5 months
Thanks: 145117 time(s)
Russian Federation


FLAC

Register


Go to the top of the page
  Insert nick Quick quote
+Quote Post

Reply to this topicStart new topic
1 User(s) are reading this topic (1 Guests and 0 Anonymous Users)
0 Members:

 



- Lo-Fi Version Support form
Copyrights and abuse reports form
Time is now: 10th December 2023 - 23:35:48