Welcome Guest ( Log In | Register )

 
Reply to this topicStart new topic
> Orbita - Into Nothingness I Walk [demo] (2023), Stoner/Doom Metal
post May 29 2023, 02:43:34
Post #1

Правь статус, ####!111
**************
Group: Металариец
Posts: 8,320
Releases: 6573
On Forums: 13 years 3 months
Thanks: 114992 time(s)
Italy


(IMG:https://metalarea.org/images/audiocovers/2023_May/acov_tid382152_thumb.jpg)

*Artist: Orbita
*Album: Into Nothingness I Walk [demo]
*Year: 2023
*Genre: Stoner/Doom Metal
*Country: Italy (IMG:https://metalarea.org/forum/style_images/flags/Italy.png)
*Format: mp3@CBR320kbps
*Size: 76MB

Tracklist:
1.This Flesh 06:08
2.Relieved 11:05
3.Voices 05:58
4.Ten Minutes 09:37
******************************
Total playing time: 32:48



Technical info
(IMG:https://metalarea.org/images/spectrogram/2023_May/27654ea98a0fc5cfeb7ba2e3730df60c.png)
Input File: 3.Voices.mp3
Channels : 2
Sample Rate : 44100
Precision : 16-bit
Duration : 00:05:58.68 = 15817964 samples = 26901.3 CDDA sectors
File Size : 14.7M
Bit Rate : 328k
Sample Encoding: MPEG audio (layer I, II or III)
Comments :
Title=Voices
Artist=Orbita
Album=Into Nothingness I Walk
Tracknumber=3/4
Year=2023
Discnumber=1/1



Register


Go to the top of the page
  Insert nick Quick quote
+Quote Post

Reply to this topicStart new topic
1 User(s) are reading this topic (1 Guests and 0 Anonymous Users)
0 Members:

 



- Lo-Fi Version Support form
Copyrights and abuse reports form
Time is now: 5th March 2024 - 10:46:03