Welcome Guest ( Log In | Register )

 
Reply to this topicStart new topic
> Adixius - Nacemos Para Morir [ep] (2022), Heavy/Thrash Metal
post May 29 2023, 03:20:27
Post #1

Правь статус, ####!111
**************
Group: Металариец
Posts: 8,320
Releases: 6574
On Forums: 13 years 3 months
Thanks: 115020 time(s)
Italy


(IMG:https://metalarea.org/images/audiocovers/2023_May/acov_tid382154_thumb.jpg)

*Artist: Adixius
*Album: Nacemos Para Morir [ep]
*Year: 2022
*Genre: Heavy/Thrash Metal
*Country: Chile (IMG:https://metalarea.org/forum/style_images/flags/Chile.png)
*Format: mp3@CBR320kbps
*Size: 55MB

Tracklist:
1.Caballeros del horror 07:21
2.Vidas clandestinas 04:42
3.Nacemos para morir 09:39
4.Hanamichi 01:56
******************************
Total playing time: 23:38

(IMG:https://metalarea.org/images/youtube.png)

Technical info
(IMG:https://metalarea.org/images/spectrogram/2023_May/124da510f385ab92ca222419a8f296d1.png)
Input File: 2.Vidas clandestinas.mp3
Channels : 2
Sample Rate : 44100
Precision : 16-bit
Duration : 00:04:42.09 = 12440125 samples = 21156.7 CDDA sectors
File Size : 12.0M
Bit Rate : 340k
Sample Encoding: MPEG audio (layer I, II or III)
Comments :
Title=Vidas clandestinas
Artist=Adixius
Album=Nacemos para morir
Tracknumber=2/4
Year=2022
Discnumber=1/1



Register


Go to the top of the page
  Insert nick Quick quote
+Quote Post

Reply to this topicStart new topic
1 User(s) are reading this topic (1 Guests and 0 Anonymous Users)
0 Members:

 



- Lo-Fi Version Support form
Copyrights and abuse reports form
Time is now: 5th March 2024 - 12:05:16