Welcome Guest ( Log In | Register )

Объявления

* gmail.com упорно продолжает считать почту с нас "unsolicited" и отбивает в том числе и письма активации, поэтому просьба использовать альтернативные почтовые ящики.
------------
* gmail.com continues reject all mail from us as "unsolicited" (activation mails too) therefore please use alternate mail servers.
> S.U.P. - Octa (2023), Avant-Garde Metal (D5)
post May 29 2023, 19:01:50
Post #1

Герберт Уэст
**************
Group: Металариец
Posts: 2,517
Releases: 81
From: Болота мокшанские/Донбасс
On Forums: 14 years 11 months
Thanks: 5708 time(s)
Russian Federation


(IMG:https://metalarea.org/images/audiocovers/2023_May/acov_tid382171_thumb.jpg)

*Artist: S.U.P.
*Album: Octa
*Year: 2023
*Genre: Avant-Garde Metal
*Country: France (IMG:https://metalarea.org/forum/style_images/flags/France.png)
*Format: mp3@CBR320kbps
*Size: 107MB

Tracklist:
01. Pseudopodic Phantasm
02. Not Icarus
03. Atramentous Sea
04. The Lights of Eden
05. Queen Quintessence
06. Open Eye
07. Hebdomath
08. Torment
******************************
Total playing time: 48:01

Preview 1

Extended info
Band members
Ludovic Loez Guitars, Vocals
Fabrice Loez Guitars
Frédéric Fievez Bass
Thierry Berger Drums
Miscellaneous staff
Matthieu Carton Artwork
Mixed and mastered at Northern Delights Studio.


Technical info
(IMG:https://metalarea.org/images/spectrogram/2023_May/0689ec4a6385cacc437cfb94e9a9815e.png)
Input File: 01_S.U.P - Pseudopodic phantasm.mp3
Channels : 2
Sample Rate : 44100
Precision : 16-bit
Duration : 00:06:26.19 = 17031067 samples = 28964.4 CDDA sectors
File Size : 15.5M
Bit Rate : 320k
Sample Encoding: MPEG audio (layer I, II or III)
Comments :
Title=Pseudopodic phantasm
Artist=S.U.P.
Album=Octa
Tracknumber=01
Year=2023



Register


Go to the top of the page
  Insert nick Quick quote
+Quote Post
 
Start new topic
Replies (1 - 4)
post May 29 2023, 19:33:00
Post #2
BAN
Banned till
Aug 13 273792724, 19:46:46



А это BM вообще? Помню их месивом разных стилей, далеких от козлотона. Тут по превью всё то же месиво с элементами танцевального Crematory.
Go to the top of the page
  Insert nick Quick quote
+Quote Post
post May 29 2023, 19:34:53
Post #3

Герберт Уэст
**************
Group: Металариец
Posts: 2,517
Releases: 81
From: Болота мокшанские/Донбасс
On Forums: 14 years 11 months
Thanks: 5708 time(s)
Russian Federation


ЦИТАТА(spbfucker @ May 29 2023, 21:33:00) *
А это BM вообще? Помню их месивом разных стилей, далеких от козлотона. Тут по превью всё то же месиво с элементами танцевального Crematory.

Никогда им и не были, вообще-то. Авант митол, как он есть. Группа, еще с лихих 90х рубит и всегда играла в данном стиле, приправленном толикой мелодета. Я с ними познакомился, услышав на трибьют-альбоме Парадайзов, где они весьма оригинально запилили Гнилую Нищету.


Thanks:
Go to the top of the page
  Insert nick Quick quote
+Quote Post
post May 29 2023, 19:36:15
Post #4

Правь статус, ####!111
**************
Group: Металариец
Posts: 56,003
Releases: 1201
On Forums: 14 years 11 months
Thanks: 54872 time(s)
Russian Federation


Вот что до супа, то соляночка - самый топ.

(IMG:https://i.ibb.co/7JnQrXk/image.jpg)

Также люблю гороховый, куриный, борщ.



Thanks:
(1) apries,
Go to the top of the page
  Insert nick Quick quote
+Quote Post
post May 29 2023, 19:37:48
Post #5
BAN
Banned till
Aug 13 273792724, 19:46:46



ЦИТАТА(paganheart @ May 29 2023, 19:34:53) *
Никогда им и не были, вообще-то. Авант митол, как он есть.

А, глазоньки меня подвели.
Авангарда я там тоже не помню - помню готиччьный недодэт с электроникой. Ну, для Holy Records классический формат, ни рыба, ни мясо.
Жаль, превьюх мало, очень сомнительный проект.
Go to the top of the page
  Insert nick Quick quote
+Quote Post

Reply to this topicStart new topic
1 User(s) are reading this topic (1 Guests and 0 Anonymous Users)
0 Members:

 



- Lo-Fi Version Support form
Copyrights and abuse reports form
Time is now: 31st May 2024 - 00:05:41