Welcome Guest ( Log In | Register )

Объявления

* gmail.com упорно продолжает считать почту с нас "unsolicited" и отбивает в том числе и письма активации, поэтому просьба использовать альтернативные почтовые ящики.
------------
* gmail.com continues reject all mail from us as "unsolicited" (activation mails too) therefore please use alternate mail servers.
 
Reply to this topicStart new topic
> Dione - Cosmosphere [ep] (2023), Black Metal
post May 29 2023, 22:24:57
Post #1

Правь статус, 616
**************
Group: Металариец
Posts: 10,771
Releases: 8773
From: 55°35’N 38°08’E
On Forums: 15 years 10 months
Thanks: 156056 time(s)
Russian Federation


(IMG:https://metalarea.org/images/audiocovers/2023_May/acov_tid382174_thumb.jpg)

*Artist: Dione
*Album: Cosmosphere [ep]
*Year: 2023
*Genre: Black Metal
*Country: Poland (IMG:https://metalarea.org/forum/style_images/flags/Poland.png)
*Format: mp3@CBR320kbps
*Size: 49MB

Tracklist:
1.Moon 03:54
2.Cosmological Fractals 04:43
3.From Obliteration to Macrocosm 05:40
4.Resonance Above the Unknown 04:55
******************************
Total playing time: 19:12



(IMG:https://metalarea.org/images/youtube.png)

Technical info
(IMG:https://metalarea.org/images/spectrogram/2023_May/41183d268e51c80b670366a30371f7e6.png)
Input File: 01 Moon.mp3
Channels : 2
Sample Rate : 44100
Precision : 16-bit
Duration : 00:03:55.04 = 10365220 samples = 17627.9 CDDA sectors
File Size : 9.73M
Bit Rate : 331k
Sample Encoding: MPEG audio (layer I, II or III)
Comments :
Title=Moon
Artist=Dione
Album=Cosmosphere
Tracknumber=1
Year=2023
Genre=Black Metal



Register


Go to the top of the page
  Insert nick Quick quote
+Quote Post

Reply to this topicStart new topic
1 User(s) are reading this topic (1 Guests and 0 Anonymous Users)
0 Members:

 



- Lo-Fi Version Support form
Copyrights and abuse reports form
Time is now: 29th May 2024 - 09:11:11