Welcome Guest ( Log In | Register )

> Werewolf Bloodorder - The Rebirth Of The Night And The Fog (2023), Black Metal
post Jun 4 2023, 17:25:44
Post #1

Правь статус, ####!111
**************
Group: Металариец
Posts: 7,450
Releases: 6820
From: Одесса
On Forums: 15 years 10 months
Thanks: 79301 time(s)
Ukraine


(IMG:https://metalarea.org/images/audiocovers/2023_Jun/acov_tid382420_thumb.jpg)

*Artist: Werewolf Bloodorder
*Album: The Rebirth Of The Night And The Fog
*Year: 2023
*Genre: Black Metal
*Country: Brazil (IMG:https://metalarea.org/forum/style_images/flags/Brazil.png)
*Format: mp3@CBR320kbps
*Size: 91MB

Tracklist:
1. Imperial Blood Order (Werewolf Returns)
2. Fullmoon Spectres Marches over the Falling Zion
3. Southern Thrones in the Moons Shadows
4. Spell of Hatred
5. Thy Spring Will Never Come
6. Kali Yoga
7. Triumphant Desolation (We Leave a World in Flames)
******************************
Total playing time: 37:57

Extended info


Technical info
(IMG:https://metalarea.org/images/spectrogram/2023_Jun/d09693a560744da2553057f9f5527b5d.png)
Input File: 04. Spell of Hatred.mp3
Channels : 2
Sample Rate : 48000
Precision : 16-bit
Duration : 00:05:29.26 = 15804576 samples ~ 24694.6 CDDA sectors
File Size : 13.2M
Bit Rate : 320k
Sample Encoding: MPEG audio (layer I, II or III)
Comments :
Title=Spell of Hatred
Artist=Werewolf Bloodorder
Album=The Rebirth of the Night and the Fog
Tracknumber=4
Year=2023
Genre=138



Register


Go to the top of the page
  Insert nick Quick quote
+Quote Post
 
Start new topic
Replies (1 - 2)
post Nov 20 2023, 17:47:04
Post #2
BAN
Banned till
Apr 20 2024, 21:34:44



https://katfile.com/5rjvzq0v3ui9/werewolf.7z.html

password: darkport.org
Go to the top of the page
  Insert nick Quick quote
+Quote Post
post Nov 20 2023, 18:13:03
Post #3

Правь статус, ####!111
**************
Group: Металариец
Posts: 3,136
Releases: 0
From: д. Гадюкино
On Forums: 9 years 10 months
Thanks: 3118 time(s)
Russian Federation


Mirror
Register


Go to the top of the page
  Insert nick Quick quote
+Quote Post

Reply to this topicStart new topic
2 User(s) are reading this topic (2 Guests and 0 Anonymous Users)
0 Members:

 



- Lo-Fi Version Support form
Copyrights and abuse reports form
Time is now: 17th April 2024 - 23:21:46