Welcome Guest ( Log In | Register )

 
Reply to this topicStart new topic
> Bury Tomorrow - The Seventh Sun (2023), Metalcore (D8)
post Jun 8 2023, 13:37:37
Post #1
BAN
Banned till
Mar 3 2024, 11:01:22



(IMG:https://metalarea.org/images/audiocovers/2023_Jun/acov_tid382577_thumb.jpg)

*Artist: Bury Tomorrow
*Album: The Seventh Sun
*Year: 2023
*Genre: Metalcore
*Country: United Kingdom (IMG:https://metalarea.org/forum/style_images/flags/United%20Kingdom.png)
*Format: mp3@CBR320kbps
*Size: 97MB

Tracklist:
1. The Seventh Sun 03:43
2. Abandon Us 03:43
3. Begin Again 03:36
4. Forced Divide 03:28
5. Boltcutter 03:38
6. Wrath 05:07
7. Majesty 04:17
8. Heretic (feat. Loz Taylor of While She Sleeps) 03:33
9. Recovery? 03:47
10. Care 03:07
11. The Carcass King (feat. Cody Frost) 04:35
******************************
Total playing time: 42:34

Technical info
(IMG:https://metalarea.org/images/spectrogram/2023_Jun/fae22549aa94011905226b163691167d.png)
Input File: 01 - The Seventh Sun.mp3
Channels : 2
Sample Rate : 44100
Precision : 16-bit
Duration : 00:03:42.03 = 9791523 samples = 16652.2 CDDA sectors
File Size : 8.90M
Bit Rate : 321k
Sample Encoding: MPEG audio (layer I, II or III)
Comments :
Title=The Seventh Sun
Artist=Bury Tomorrow
Album=The Seventh Sun
Tracknumber=1/11
Year=2023
Genre=Metalcore
Discnumber=1/1



Register


Go to the top of the page
  Insert nick Quick quote
+Quote Post
post Jun 8 2023, 16:59:48
Post #2

Ледоруб
**************
Group: Металариец
Posts: 33,382
Releases: 0
From: Санкт-Петербург
On Forums: 14 years 5 months
Thanks: 11690 time(s)
Russian Federation


Дякую.
Go to the top of the page
  Insert nick Quick quote
+Quote Post
post Jun 8 2023, 20:16:39
Post #3

Ледоруб
**************
Group: Металариец
Posts: 33,382
Releases: 0
From: Санкт-Петербург
On Forums: 14 years 5 months
Thanks: 11690 time(s)
Russian Federation


Мне не понравилось, уноси обратно.
Go to the top of the page
  Insert nick Quick quote
+Quote Post
post Jun 10 2023, 21:06:22
Post #4

Тридцать три года на борту "тяжёлого" крейсера
**************
Group: Металариец
Posts: 3,114
Releases: 0
From: Питер
On Forums: 16 years 8 months
Thanks: 987 time(s)
Russian Federation


Как ни странно, группа выдала очень качественный материал, модерновые фишки не режут ухо
Слушать можно, короче)
Go to the top of the page
  Insert nick Quick quote
+Quote Post
post Jun 10 2023, 22:08:35
Post #5

Маньяк
**********
Group: Металариец
Posts: 1,005
Releases: 0
From: Лыткарино
On Forums: 4 years 9 months
Thanks: 287 time(s)
Russian Federation


Хороший альбом, да, без школьной атмосферы, которая характерна стилю, всё красиво)
Go to the top of the page
  Insert nick Quick quote
+Quote Post
post Jun 10 2023, 22:17:42
Post #6

Ледоруб
**************
Group: Металариец
Posts: 33,382
Releases: 0
From: Санкт-Петербург
On Forums: 14 years 5 months
Thanks: 11690 time(s)
Russian Federation


Скучный, нехуковый альбом, прошлый был лучше.
Go to the top of the page
  Insert nick Quick quote
+Quote Post
post Jun 11 2023, 18:13:15
Post #7

Девять Литров
*********
Group: Металариец
Posts: 942
Releases: 3
From: Украина
On Forums: 5 years 7 months
Thanks: 487 time(s)
Ukraine


Хороший альбом!
Go to the top of the page
  Insert nick Quick quote
+Quote Post
post Sep 19 2023, 13:57:46
Post #8

Ъ
**************
Group: Металариец
Posts: 11,214
Releases: 9
On Forums: 15 years 1 month
Thanks: 2274 time(s)
Sweden


Худший альбом в диско, первые были шикарные, потом по несколько треков с каждого оставлял, тут ни одного годного трека нет.
Go to the top of the page
  Insert nick Quick quote
+Quote Post

Reply to this topicStart new topic
1 User(s) are reading this topic (1 Guests and 0 Anonymous Users)
0 Members:

 



- Lo-Fi Version Support form
Copyrights and abuse reports form
Time is now: 3rd March 2024 - 06:28:15