Welcome Guest ( Log In | Register )

Объявления

* gmail.com упорно продолжает считать почту с нас "unsolicited" и отбивает в том числе и письма активации, поэтому просьба использовать альтернативные почтовые ящики.
------------
* gmail.com continues reject all mail from us as "unsolicited" (activation mails too) therefore please use alternate mail servers.
 
Reply to this topicStart new topic
> I, Destroyer - Cold, Dead Hands [ep] (2023), Thrash/Speed Metal
post Jun 10 2023, 21:10:14
Post #1

Правь статус, ####!111
**************
Group: Металариец
Posts: 36,391
Releases: 27134
From: Г.Харьков
On Forums: 12 years 2 months
Thanks: 590657 time(s)
Ukraine


(IMG:https://metalarea.org/images/audiocovers/2023_Jun/acov_tid382705_thumb.jpg)

*Artist: I, Destroyer
*Album: Cold, Dead Hands [ep]
*Year: 2023
*Genre: Thrash/Speed Metal
*Country: United States (IMG:https://metalarea.org/forum/style_images/flags/United%20States.png)
*Format: mp3@CBR320kbps
*Size: 61MB

Tracklist:
1. Oracle 04:48
2. Chained to the Accursed Graves 04:33
3. Total Vengeance 03:43
4. Prophecies of Final War 03:45
5. Speed Kills 04:56
6. Strike 04:37
******************************
Total playing time: 26:22




Extended info
Barbaroz Guitars (lead), Vocals (2003-present)
See also: Haxen, Sangus, ex-Violent History, As the Sun Sets, Suffering Bastard, ex-Churchburn, ex-Enucleator
Poisin Bass (2017-present)
See also: Ash Pool, Haxen, Football Rabbit
Tormentum Guitars (2017-present)
See also: Ancient Torment, Witch King, ex-Enucleator, ex-Rhode Kill, ex-Cemetery Lights (live), ex-Implosion Crusade
Wraitheon Drums (2022-present)
See also: Black Sorcery, ex-Bog of the Infidel, ex-Nefarious


Technical info
(IMG:https://metalarea.org/images/spectrogram/2023_Jun/bebab8f00dc39d73b008b813e7424af9.png)
Input File: 05 - Speed Kills.mp3
Channels : 2
Sample Rate : 44100
Precision : 16-bit
Duration : 00:04:56.00 = 13053600 samples = 22200 CDDA sectors
File Size : 12.0M
Bit Rate : 324k
Sample Encoding: MPEG audio (layer I, II or III)
Comments :
Title=Speed Kills
Artist=I Destroyer
Album=Cold, Dead Hands
Tracknumber=5
Year=2023-06-09
Genre=Metal
Discnumber=1



Register


Go to the top of the page
  Insert nick Quick quote
+Quote Post

Reply to this topicStart new topic
1 User(s) are reading this topic (1 Guests and 0 Anonymous Users)
0 Members:

 



- Lo-Fi Version Support form
Copyrights and abuse reports form
Time is now: 13th July 2024 - 03:18:51