Welcome Guest ( Log In | Register )

Объявления

* gmail.com упорно продолжает считать почту с нас "unsolicited" и отбивает в том числе и письма активации, поэтому просьба использовать альтернативные почтовые ящики.
------------
* gmail.com continues reject all mail from us as "unsolicited" (activation mails too) therefore please use alternate mail servers.

> И неформату есть предел.

Рэп/хип-хоп/шансон/поп удаляются. Для них есть свои порталы.

> Esthero - Breath From Another (1998), Trip Hop
post Jun 19 2023, 00:18:55
Post #1

Правь статус, ####!111
**************
Group: Металариец
Posts: 56,096
Releases: 1212
On Forums: 15 years 1 week
Thanks: 55050 time(s)
Russian Federation


(IMG:https://metalarea.org/images/audiocovers/2023_Jun/acov_tid383040_thumb.jpg)

*Artist: Esthero
*Album: Breath From Another
*Year: 1998
*Genre: Trip Hop
*Country: Canada (IMG:https://metalarea.org/forum/style_images/flags/Canada.png)
*Format: mp3@CBR320kbps
*Size: 112MB

Tracklist:
1. Breath From Another 04:47
2. Heaven Sent 04:30
3. Anywayz 03:54
4. That Girl 04:41
5. Country Livin' (The World I Know) 04:20
6. Flipher Overture 00:42
7. Half A World Away 04:18
8. Lounge 04:58
9. Superheroes 03:58
10. Indigo Boy 04:19
11. Swallow Me 06:06
******************************
Total playing time: 46:33

(IMG:https://metalarea.org/images/youtube.png)

Technical info
(IMG:https://metalarea.org/images/spectrogram/2023_Jun/71826df5cfdb13897b878b2b2aa83d9a.png)
Input File: 05 Country Livin\' (The World I Know).mp3
Channels : 2
Sample Rate : 44100
Precision : 16-bit
Duration : 00:04:21.29 = 11522933 samples = 19596.8 CDDA sectors
File Size : 10.5M
Bit Rate : 320k
Sample Encoding: MPEG audio (layer I, II or III)



Register


Thanks:
(2) Occultas, Wail,
Go to the top of the page
  Insert nick Quick quote
+Quote Post
 
Start new topic
Replies (1 - 6)
post Jun 19 2023, 11:38:42
Post #2

Правь статус, ####!111
**************
Group: Металариец
Posts: 56,096
Releases: 1212
On Forums: 15 years 1 week
Thanks: 55050 time(s)
Russian Federation


Country Livin' (The World I Know) (IMG:style_emoticons/default/20.gif)
Go to the top of the page
  Insert nick Quick quote
+Quote Post
post Jun 20 2023, 12:15:19
Post #3

https://rateyourmusic.com/~Ghostb
**************
Group: Металариец
Posts: 2,777
Releases: 0
From: Харьков
On Forums: 14 years 8 months
Thanks: 1385 time(s)
Ukraine


Этих не слушал.
Go to the top of the page
  Insert nick Quick quote
+Quote Post
post Jun 20 2023, 12:21:56
Post #4

Правь статус, ####!111
**************
Group: Металариец
Posts: 56,096
Releases: 1212
On Forums: 15 years 1 week
Thanks: 55050 time(s)
Russian Federation


ЦИТАТА(Ghostb @ Jun 20 2023, 14:15:19) *
Этих не слушал.


Охренел от красоты песни Country Livin' (The World I Know) (IMG:style_emoticons/default/pray.gif) Впервые услышал ее в фильме I Think l Love My Wife с Крисом Роком, побежал качать и - таки не разочаровался - отличный альбом. (IMG:style_emoticons/default/bye.gif)


Thanks:
(1) Ghostb,
Go to the top of the page
  Insert nick Quick quote
+Quote Post
post Jun 20 2023, 12:37:12
Post #5

Правь статус, ####!111
**************
Group: Металариец
Posts: 56,096
Releases: 1212
On Forums: 15 years 1 week
Thanks: 55050 time(s)
Russian Federation


ЦИТАТА(Ghostb @ Jun 20 2023, 14:15:19) *
Этих не слушал.


И да, смело качай, женский вокал тут восхитителен (IMG:style_emoticons/default/pray.gif)


Thanks:
(1) Ghostb,
Go to the top of the page
  Insert nick Quick quote
+Quote Post
post Jun 20 2023, 14:30:45
Post #6

https://rateyourmusic.com/~Ghostb
**************
Group: Металариец
Posts: 2,777
Releases: 0
From: Харьков
On Forums: 14 years 8 months
Thanks: 1385 time(s)
Ukraine


ЦИТАТА(vosmidesijatye @ Jun 20 2023, 14:21:56) *
Охренел от красоты песни Country Livin' (The World I Know)

А ведь реально отличный трек. Заценю альбомчик, убедил (IMG:style_emoticons/default/9.gif)
Go to the top of the page
  Insert nick Quick quote
+Quote Post
post Jun 20 2023, 14:35:31
Post #7

Правь статус, ####!111
**************
Group: Металариец
Posts: 56,096
Releases: 1212
On Forums: 15 years 1 week
Thanks: 55050 time(s)
Russian Federation


ЦИТАТА(Ghostb @ Jun 20 2023, 16:30:45) *
Заценю альбомчик, убедил (IMG:style_emoticons/default/9.gif)


Я плохого не посоветую) Можешь потом и остальные послухать, благо у неё всего 2 полноформатника помимо этого.



Thanks:
(1) Ghostb,
Go to the top of the page
  Insert nick Quick quote
+Quote Post

Reply to this topicStart new topic
1 User(s) are reading this topic (1 Guests and 0 Anonymous Users)
0 Members:

 



- Lo-Fi Version Support form
Copyrights and abuse reports form
Time is now: 14th June 2024 - 10:19:18