Welcome Guest ( Log In | Register )

Объявления

* gmail.com упорно продолжает считать почту с нас "unsolicited" и отбивает в том числе и письма активации, поэтому просьба использовать альтернативные почтовые ящики.
------------
* gmail.com continues reject all mail from us as "unsolicited" (activation mails too) therefore please use alternate mail servers.

> И неформату есть предел.

Рэп/хип-хоп/шансон/поп удаляются. Для них есть свои порталы.

> Черноплодь - Лад Да Батог [ep] (2023), Ambient/Folk (D5)
post Jun 20 2023, 17:04:38
Post #1

Правь статус, ####!111
**************
Group: Металариец
Posts: 56,145
Releases: 1213
On Forums: 15 years 2 weeks
Thanks: 55093 time(s)
Russian Federation


(IMG:https://metalarea.org/images/audiocovers/2023_Jun/acov_tid383088_thumb.jpg)

*Artist: Черноплодь
*Album: Лад Да Батог [ep]
*Year: 2023
*Genre: Ambient/Folk
*Country: Russian Federation (IMG:https://metalarea.org/forum/style_images/flags/Russian%20Federation.png)
*Format: mp3@CBR320kbps
*Size: 51MB

Tracklist:
1. Лад 11:18
2. Батог 11:01
******************************
Total playing time: 22:19

Technical info
(IMG:https://metalarea.org/images/spectrogram/2023_Jun/7b0e2b500a67eb339849584735a1e8cf.png)
Input File: 01. Лад.mp3
Channels : 2
Sample Rate : 44100
Precision : 16-bit
Duration : 00:11:18.07 = 29903063 samples = 50855.5 CDDA sectors
File Size : 27.7M
Bit Rate : 327k
Sample Encoding: MPEG audio (layer I, II or III)
Comments :
Title=Лад
Artist=Черноплодь
Album=Лад да батог
Tracknumber=01
Year=2023



Register


Go to the top of the page
  Insert nick Quick quote
+Quote Post
 
Start new topic
Replies (1 - 3)
post Jun 20 2023, 18:13:32
Post #2

Правь статус, ####!111
**************
Group: Металариец
Posts: 56,145
Releases: 1213
On Forums: 15 years 2 weeks
Thanks: 55093 time(s)
Russian Federation


Кому мало было, вот ещё навалили атмосферного...
Go to the top of the page
  Insert nick Quick quote
+Quote Post
post Jun 20 2023, 19:05:43
Post #3

кручу наждак
**************
Group: Металариец
Posts: 6,588
Releases: 111
From: Самара
On Forums: 14 years 1 month
Thanks: 5146 time(s)
Russian Federation


Чересчур лубочно и фоново.
Go to the top of the page
  Insert nick Quick quote
+Quote Post
post Apr 23 2024, 16:39:00
Post #4

Три Литра
***
Group: Завсегдатай
Posts: 270
Releases: 0
On Forums: 17 years 9 months
Thanks: 60 time(s)
Russian Federation


Пожалуйста перезалейте.
Go to the top of the page
  Insert nick Quick quote
+Quote Post

Reply to this topicStart new topic
1 User(s) are reading this topic (1 Guests and 0 Anonymous Users)
0 Members:

 



- Lo-Fi Version Support form
Copyrights and abuse reports form
Time is now: 18th June 2024 - 15:57:37