Welcome Guest ( Log In | Register )

 
Reply to this topicStart new topic
> Inquisitor - Demo [demo] (1992), Thrash/Speed Metal (D15)
post Jun 21 2023, 14:15:11
Post #1

Подвал
**************
Group: Металариец
Posts: 19,992
Releases: 11469
From: Far East (Khabarovsk)
On Forums: 15 years 4 weeks
Thanks: 136114 time(s)
Russian Federation


(IMG:https://metalarea.org/images/audiocovers/nocover.gif)

*Artist: Inquisitor
*Album: Demo [demo]
*Year: 1992
*Genre: Thrash/Speed Metal
*Country: Russian Federation (IMG:https://metalarea.org/forum/style_images/flags/Russian%20Federation.png)
*Format: mp3@CBR256kbps
*Size: 26MB

Tracklist:
1. Проклятие 03:53
2. Шабаш 02:42
3. Инквизитор Идёт 03:58
4. Кто Кого? 03:05
5. Приговор 02:44
******************************
Total playing time: 16:22

Extended info
Band from Leningrad (pre-Wehrwolf Division).
Thanx AIK445 for this rare demo!


Technical info
(IMG:https://metalarea.org/images/spectrogram/2023_Jun/162ab164a8b174e3a7dd795f4c938d1c.png)
Input File: 02-Шабаш.mp3
Channels : 2
Sample Rate : 44100
Precision : 16-bit
Duration : 00:02:42.67 = 7173659 samples = 12200.1 CDDA sectors
File Size : 5.20M
Bit Rate : 256k
Sample Encoding: MPEG audio (layer I, II or III)
Comments :
Title=Шабаш
Artist=Inquisitor
Album=Demo
Tracknumber=02
Year=1992
Genre=Metal



Register


Go to the top of the page
  Insert nick Quick quote
+Quote Post

Reply to this topicStart new topic
1 User(s) are reading this topic (1 Guests and 0 Anonymous Users)
0 Members:

 



- Lo-Fi Version Support form
Copyrights and abuse reports form
Time is now: 24th February 2024 - 10:14:01