Welcome Guest ( Log In | Register )

Объявления

* gmail.com упорно продолжает считать почту с нас "unsolicited" и отбивает в том числе и письма активации, поэтому просьба использовать альтернативные почтовые ящики.
------------
* gmail.com continues reject all mail from us as "unsolicited" (activation mails too) therefore please use alternate mail servers.
> Degrees Of Truth - Alchemists (2023), Symphonic Progressive Metal
post Jun 22 2023, 15:33:19
Post #1

Serial Uploader
Group Icon
Group: V.I.P
Posts: 42,605
Releases: 40671
From: Lithuania
On Forums: 15 years 11 months
Thanks: 521376 time(s)
Lithuania


(IMG:https://metalarea.org/images/audiocovers/2023_Jun/acov_tid383191_thumb.jpg)

*Artist: Degrees Of Truth
*Album: Alchemists
*Year: 2023
*Genre: Symphonic Progressive Metal
*Country: Italy (IMG:https://metalarea.org/forum/style_images/flags/Italy.png)
*Format: mp3@CBR320kbps
*Size: 101MB

Tracklist:
1. Imperfect Conconction 03:52
2. Godless Symphony 03:50
3. Over the Tide 04:32
4. Flightmare 03:35
5. Wreckage of a Lifetime 04:04
6. Misconnection 04:42
7. Tiny Box of Horrors 05:04
8. Thread of Life 06:05
9. Bound to Rise 04:53
10. Alchemists 03:45
******************************
Total playing time: 44:22



(IMG:https://metalarea.org/images/youtube.png)

Technical info
(IMG:https://metalarea.org/images/spectrogram/2023_Jun/f7b0882b74b7e89b0d4c79733c8003a0.png)
Input File: 02 - Degrees of Truth - Godless Symphony.mp3
Channels : 2
Sample Rate : 44100
Precision : 16-bit
Duration : 00:03:50.05 = 10145073 samples = 17253.5 CDDA sectors
File Size : 9.28M
Bit Rate : 323k
Sample Encoding: MPEG audio (layer I, II or III)
Comments :
Title=Godless Symphony
Artist=Degrees of Truth
Album=Alchemists
Tracknumber=2/10
Year=2023
Discnumber=1/1



Register


Go to the top of the page
  Insert nick Quick quote
+Quote Post
 
Start new topic
Replies (1 - 1)
post Jun 23 2023, 06:28:56
Post #2

Восемь Литров
********
Group: Металариец
Posts: 875
Releases: 0
On Forums: 17 years 5 months
Thanks: 123 time(s)
Russian Federation


Хороший симфо метал с приятным женским вокалом, напоминает Шэрон из Within Temptation. Единственное свели как по мне не очень, - как только начинаются инструменты вокал становится плохо слышно.


Thanks:
Go to the top of the page
  Insert nick Quick quote
+Quote Post

Reply to this topicStart new topic
2 User(s) are reading this topic (2 Guests and 0 Anonymous Users)
0 Members:

 



- Lo-Fi Version Support form
Copyrights and abuse reports form
Time is now: 29th May 2024 - 08:43:27