Welcome Guest ( Log In | Register )

> Membrance - Undead Island (2023), Death Metal
post Jun 22 2023, 20:52:35
Post #1

Правь статус, ####!111
**************
Group: Металариец
Posts: 35,572
Releases: 26477
From: Г.Харьков
On Forums: 11 years 11 months
Thanks: 572372 time(s)
Ukraine


(IMG:https://metalarea.org/images/audiocovers/2023_Jun/acov_tid383212_thumb.jpg)

*Artist: Membrance
*Album: Undead Island
*Year: 2023
*Genre: Death Metal
*Country: Italy (IMG:https://metalarea.org/forum/style_images/flags/Italy.png)
*Format: mp3@CBR320kbps
*Size: 88MB

Tracklist:
1. Zombie Massacre 03:33
2. Spirar nel caigo 03:44
3. Spetro malcontenta 03:00
4. 1348 03:51
5. Marubio 03:07
6. Armor of Hate 04:02
7. Riva de biasio 03:50
8. Sepolto in velma 03:40
9. Stench of Rot 04:21
10. The Shores Crumble 03:50
******************************
Total playing time: 36:58



Extended info
Davide Lazzarini Vocals (2012-2013, 2014-present), Bass (2014-present)
See also: Catechon, ex-Exilium, ex-Primo Vespere, ex-Revolution Chaos
Giovanni De Fraja Drums (2017-present)
See also: Exitium
Gregorio Di Angilla Guitars (2020-present)
See also: Askesis, Funeral Ground
Giacomo Rusconi Guitars (2021-present)



Technical info
(IMG:https://metalarea.org/images/spectrogram/2023_Jun/bf3b6281f4803c58cf93adf3e8c00f39.png)
Input File: 09 - Stench of Rot.mp3
Channels : 2
Sample Rate : 44100
Precision : 16-bit
Duration : 00:04:21.00 = 11510100 samples = 19575 CDDA sectors
File Size : 10.8M
Bit Rate : 331k
Sample Encoding: MPEG audio (layer I, II or III)
Comments :
Title=Stench of Rot
Artist=Membrance
Album=Undead Island
Tracknumber=9
Year=2023-06-23
Genre=Металл
Discnumber=1



Register


Go to the top of the page
  Insert nick Quick quote
+Quote Post
 
Start new topic
Replies (1 - 3)
post Jun 23 2023, 00:19:25
Post #2

Правь статус, ####!111
**************
Group: Металариец
Posts: 35,572
Releases: 26477
From: Г.Харьков
On Forums: 11 years 11 months
Thanks: 572372 time(s)
Ukraine


FLAC (Tracks) 279 mb
Register


Thanks:
Go to the top of the page
  Insert nick Quick quote
+Quote Post
post Jul 1 2023, 15:27:16
Post #3

Литр
*
Group: Подсевший
Posts: 77
Releases: 0
From: Kyiv
On Forums: 9 years 2 months
Thanks: 29 time(s)
Ukraine




Thanks:
(1) Evrom,
Go to the top of the page
  Insert nick Quick quote
+Quote Post
post Sep 17 2023, 19:39:17
Post #4

кручу наждак
**************
Group: Металариец
Posts: 6,496
Releases: 109
From: Самара
On Forums: 13 years 11 months
Thanks: 5031 time(s)
Russian Federation


Уныло, ниасилил.
Go to the top of the page
  Insert nick Quick quote
+Quote Post

Reply to this topicStart new topic
1 User(s) are reading this topic (1 Guests and 0 Anonymous Users)
0 Members:

 



- Lo-Fi Version Support form
Copyrights and abuse reports form
Time is now: 17th April 2024 - 22:17:56