Welcome Guest ( Log In | Register )

Объявления

* gmail.com упорно продолжает считать почту с нас "unsolicited" и отбивает в том числе и письма активации, поэтому просьба использовать альтернативные почтовые ящики.
------------
* gmail.com continues reject all mail from us as "unsolicited" (activation mails too) therefore please use alternate mail servers.
> Soul Grinder - Filth Encrusted (2023), Heavy/Thrash Metal (D6)
post Jun 22 2023, 22:28:58
Post #1

Правь статус, ####!111
**************
Group: Металариец
Posts: 36,452
Releases: 27181
From: Г.Харьков
On Forums: 12 years 2 months
Thanks: 592535 time(s)
Ukraine


(IMG:https://metalarea.org/images/audiocovers/2023_Jun/acov_tid383219_thumb.jpg)

*Artist: Soul Grinder
*Album: Filth Encrusted
*Year: 2023
*Genre: Heavy/Thrash Metal
*Country: United States (IMG:https://metalarea.org/forum/style_images/flags/United%20States.png)
*Format: mp3@CBR320kbps
*Size: 100MB

Tracklist:
1. Melting Spree 04:39
2. Siege Breaker 04:31
3. Your World Is Ours 05:05
4. Filth Encrusted 04:17
5. Overload 03:29
6. Plague Pilgrim 06:15
7. Chosen 05:16
8. All Is Dust 04:21
9. Foul River 04:56
******************************
Total playing time: 42:49




Extended info
April Dimmick Bass, Vocals
Kevin Ross Drums
Alex Avery Guitars


Technical info
(IMG:https://metalarea.org/images/spectrogram/2023_Jun/b45709b09d8bda0530359e755bec8efb.png)
Input File: 07 - Chosen.mp3
Channels : 2
Sample Rate : 44100
Precision : 16-bit
Duration : 00:05:16.00 = 13935600 samples = 23700 CDDA sectors
File Size : 12.8M
Bit Rate : 325k
Sample Encoding: MPEG audio (layer I, II or III)
Comments :
Title=Chosen
Artist=Soul Grinder
Album=Filth Encrusted
Tracknumber=7
Year=2023-06-23
Genre=Alternative
Discnumber=1



Register


Go to the top of the page
  Insert nick Quick quote
+Quote Post
 
Start new topic
Replies (1 - 4)
post Jun 23 2023, 10:29:27
Post #2

Group: Подсевший
Posts: 17
Releases: 0
On Forums: 1 year 3 months
Thanks: 1 time(s)
Russian Federation


не по мне конечно
Go to the top of the page
  Insert nick Quick quote
+Quote Post
post Jun 23 2023, 21:35:57
Post #3
BAN
Banned till
Mar 26 273792725, 23:06:17



ЦИТАТА(vadikmetallic @ Jun 23 2023, 10:29:27) *
не по мне конечно

конечно


Thanks:
(1) Izverg,
Go to the top of the page
  Insert nick Quick quote
+Quote Post
post Jun 26 2023, 22:40:31
Post #4

_ - = # Thrashogolic # = - _ ... а давайте поржём все вместе
**************
Group: Металариец
Posts: 22,824
Releases: 4444
From: 404
On Forums: 14 years 1 month
Thanks: 29414 time(s)
Ukraine


ЦИТАТА(vadikmetallic @ Jun 23 2023, 12:29:27) *
не по мне конечно
Весь прослушал?
Добрался до 6. Plague Pilgrim ?)
Go to the top of the page
  Insert nick Quick quote
+Quote Post
post Jul 1 2023, 01:41:49
Post #5

Маньяк
**********
Group: Металариец
Posts: 1,348
Releases: 0
From: Isla de Margarita, Venezuela
On Forums: 5 years 6 months
Thanks: 423 time(s)
Venezuela


Con una mejor producción, esto hubiera quedado mucho mejor

....................

С лучшим производством, это было бы намного лучше

....................

With a better production, this would have been much better
Go to the top of the page
  Insert nick Quick quote
+Quote Post

Reply to this topicStart new topic
1 User(s) are reading this topic (1 Guests and 0 Anonymous Users)
0 Members:

 



- Lo-Fi Version Support form
Copyrights and abuse reports form
Time is now: 23rd July 2024 - 07:20:31