Welcome Guest ( Log In | Register )

Объявления

* gmail.com упорно продолжает считать почту с нас "unsolicited" и отбивает в том числе и письма активации, поэтому просьба использовать альтернативные почтовые ящики.
------------
* gmail.com continues reject all mail from us as "unsolicited" (activation mails too) therefore please use alternate mail servers.
> Кощуны & Зловещень - Т​р​е​т​ь​е С​о​р​н​о​е П​о​с​л​а​н​и​е​ (​The Third Weed Message) [split] (2023), Raw Black Metal | Raw Black Metal
post Jun 24 2023, 15:26:56
Post #1

Правь статус, ####!111
**************
Group: Металариец
Posts: 55,949
Releases: 1198
On Forums: 14 years 11 months
Thanks: 54782 time(s)
Russian Federation


(IMG:https://metalarea.org/images/audiocovers/2023_Jun/acov_tid383302_thumb.jpg)

*Artist: Кощуны & Зловещень
*Album: Т​р​е​т​ь​е С​о​р​н​о​е П​о​с​л​а​н​и​е​ (​The Third Weed Message) [split]
*Year: 2023
*Genre: Raw Black Metal | Raw Black Metal
*Country: Russian Federation (IMG:https://metalarea.org/forum/style_images/flags/Russian%20Federation.png) | Russian Federation (IMG:https://metalarea.org/forum/style_images/flags/Russian%20Federation.png)
*Format: mp3@CBR320kbps
*Size: 110MB

Tracklist:
1. Кощуны - Слагаемое (Samskara) 03:35
2. Кощуны - В​е​ч​е Н​е​с​х​о​д​я​щ​и​х С​н​е​г​о​в (The Everlasting Snow Council) 11:13
3. Кощуны - Ч​ё​р​н​ы​й К​а​н​о​н (Der Schwarzer Kanon) 01:42
4. Кощуны - С​и​л​о​й Д​е​в​я​т​и С​л​о​в (By The Power Of The Nine Words) 05:23
5. Кощуны - П​е​с​н​ь Ж​н​у​щ​е​г​о Р​о​д​а Н​и​в​у (The Song Of The Reaping Fields Of Kind) 10:00
6. Зловещень - З​л​ы​е В​е​с​т​и С​н​а​ч​а​л​а (Evil News First) 02:12
7. Зловещень - С​к​а​з З​и​м​ы (Winter​’​s Tale) 03:28
8. Зловещень - П​л​я​ш​у​т У​м​р​у​н​ы (The Morons Dancing) 01:33
9. Зловещень - М​о​г​и​л​а К​о​л​ы​б​е​л​ь (Grave Cradle) 6:51
10. В​с​ё Н​а​к​о​н​е​ц (That's It) 1:41
******************************
Total playing time: 47:38

Technical info
(IMG:https://metalarea.org/images/spectrogram/2023_Jun/a34e736ab4a2f7eb55b3103458876563.png)
Input File: 01. Слагаемое ( samskara).mp3
Channels : 2
Sample Rate : 48000
Precision : 16-bit
Duration : 00:03:35.50 = 10343952 samples ~ 16162.4 CDDA sectors
File Size : 8.93M
Bit Rate : 331k
Sample Encoding: MPEG audio (layer I, II or III)
Comments :
Title=Слагаемое ( samskara)
Artist=Кощуны
Album=Т​р​е​т​ь​е С​о​р​н​о​е П​о​с​л​а​н​и​е​ (​The Third Weed Message)
Tracknumber=01
Year=2023



Register


Go to the top of the page
  Insert nick Quick quote
+Quote Post
 
Start new topic
Replies (1 - 10)
post Jun 24 2023, 15:58:48
Post #2
BAN
Banned till
Aug 13 273792724, 19:46:46



Я для них и видеоряд нашёл

Go to the top of the page
  Insert nick Quick quote
+Quote Post
post Jun 24 2023, 19:09:35
Post #3

Правь статус, ####!111
**************
Group: Металариец
Posts: 55,949
Releases: 1198
On Forums: 14 years 11 months
Thanks: 54782 time(s)
Russian Federation


ЦИТАТА(spbfucker @ Jun 24 2023, 17:58:48) *
Я для них и видеоряд нашёл



Мульт намного интереснее смотреть чем их невзрачный ор слушать под невыразительную музыку.
Go to the top of the page
  Insert nick Quick quote
+Quote Post
post Jun 24 2023, 19:13:15
Post #4

а ты попал в даунтаун
***********
Group: Металариец
Posts: 1,806
Releases: 66
From: Москва
On Forums: 15 years 1 month
Thanks: 5010 time(s)
Russian Federation


Кощуны те самые?
Go to the top of the page
  Insert nick Quick quote
+Quote Post
post Jun 24 2023, 22:36:50
Post #5

Cthulhu Cultist
**********
Group: Металариец
Posts: 1,455
Releases: 5
From: Киев
On Forums: 16 years 6 months
Thanks: 591 time(s)
Ukraine


Тут больше подходит видеоряд, откуда вы блт повылазили? От эль докторе Преображенского. Был вкбм, теперь это роу.
Go to the top of the page
  Insert nick Quick quote
+Quote Post
post Jun 24 2023, 23:02:05
Post #6
BAN
Banned till
Aug 13 273792724, 19:46:46



О, умрите, умруны!
Поумрите, умруны!
Что умирают смертями, что умиранствуют умирально


Thanks:
(1) nsk2008,
Go to the top of the page
  Insert nick Quick quote
+Quote Post
post Jun 25 2023, 06:09:00
Post #7

Пять Литров
*****
Group: Металариец
Posts: 414
Releases: 1
From: Ingrija
On Forums: 16 years 5 months
Thanks: 380 time(s)
Russian Federation


ЦИТАТА(ssv @ Jun 25 2023, 00:36:50) *
Тут больше подходит видеоряд, откуда вы блт повылазили? От эль докторе Преображенского. Был вкбм, теперь это роу.


Из конца 90х они повылазили, есличо.

ЦИТАТА(acerbus @ Jun 24 2023, 21:13:15) *
Кощуны те самые?


Конечно. Владелец "Опричь" завел бандкамп и потихоньку выкладывает архивы.
Go to the top of the page
  Insert nick Quick quote
+Quote Post
post Jun 25 2023, 07:55:57
Post #8

Шесть Литров
******
Group: Металариец
Posts: 584
Releases: 0
On Forums: 15 years 4 months
Thanks: 446 time(s)
Brazil


ЦИТАТА(vosmidesijatye @ Jun 24 2023, 17:26:56) *
П​е​с​н​ь Ж​н​у​щ​е​г​о Р​о​д​а Н​и​в​у (The Song Of The Reaping Fields Of Kind) 10:00


(IMG:style_emoticons/default/headcrab.png)


Thanks:
Go to the top of the page
  Insert nick Quick quote
+Quote Post
post Jun 25 2023, 10:21:51
Post #9

Два Литра
**
Group: Завсегдатай
Posts: 101
Releases: 0
From: Львів
On Forums: 11 years 7 months
Thanks: 105 time(s)
Ukraine


третьесортное послание


Thanks:
(2) apries, Deze,
Go to the top of the page
  Insert nick Quick quote
+Quote Post
post Jun 26 2023, 10:01:03
Post #10

⏸⏹/⏏ ⏪⏩◀⏺
*******
Group: Металариец
Posts: 741
Releases: 2
From: Уругвай ёпта.
On Forums: 17 years 3 months
Thanks: 222 time(s)
Uruguay


ЦИТАТА(spbfucker @ 25th June 2023 - 01:02:05) *
О, умрите, умруны!
Поумрите, умруны!
Что умирают смертями, что умиранствуют умирально

Заумь какая то.
Go to the top of the page
  Insert nick Quick quote
+Quote Post
post Jun 26 2023, 11:48:17
Post #11

Маньяк
**********
Group: Металариец
Posts: 1,043
Releases: 9
From: Беларусь
On Forums: 16 years 11 months
Thanks: 323 time(s)
Belarus


Зловещень - Вий на вокале
Go to the top of the page
  Insert nick Quick quote
+Quote Post

Reply to this topicStart new topic
2 User(s) are reading this topic (2 Guests and 0 Anonymous Users)
0 Members:

 



- Lo-Fi Version Support form
Copyrights and abuse reports form
Time is now: 24th May 2024 - 21:47:43