Welcome Guest ( Log In | Register )

> Calico Jack - Isla De La Muerte (2023), Folk Metal
post Jun 29 2023, 14:18:25
Post #1

Serial Uploader
Group Icon
Group: V.I.P
Posts: 42,373
Releases: 40442
From: Lithuania
On Forums: 15 years 10 months
Thanks: 516533 time(s)
Lithuania


(IMG:https://metalarea.org/images/audiocovers/2023_Jun/acov_tid383461_thumb.jpg)

*Artist: Calico Jack
*Album: Isla De La Muerte
*Year: 2023
*Genre: Folk Metal
*Country: Italy (IMG:https://metalarea.org/forum/style_images/flags/Italy.png)
*Format: mp3@CBR320kbps
*Size: 146MB

Tracklist:
1. Broadside Attack 07:24
2. Isla de la muerte 10:32
3. Bad Fortune 05:02
4. Antigua 06:25
5. Three Cheers to the Shanty Man 04:30
6. Marauder 04:37
7. Queen Anne's Revenge 06:08
8. Haul Away Joe 03:31
9. Sandokan 15:47
******************************
Total playing time: 1:03:56




(IMG:https://metalarea.org/images/youtube.png)

Technical info
(IMG:https://metalarea.org/images/spectrogram/2023_Jun/f9ed8e5e7ee9ac3b4353b328246274a2.png)
Input File: 03 - Bad Fortune.mp3
Channels : 2
Sample Rate : 44100
Precision : 16-bit
Duration : 00:05:02.38 = 13335134 samples = 22678.8 CDDA sectors
File Size : 12.2M
Bit Rate : 322k
Sample Encoding: MPEG audio (layer I, II or III)
Comments :
Title=Bad Fortune
Artist=Calico Jack
Album=Isla De La Muerte
Tracknumber=3
Year=2023



Register


Go to the top of the page
  Insert nick Quick quote
+Quote Post
 
Start new topic
Replies (1 - 7)
post Jun 29 2023, 14:43:28
Post #2

Наливай!
**************
Group: Металариец
Posts: 6,421
Releases: 27
From: Москва-Бибирево
On Forums: 16 years 1 month
Thanks: 3338 time(s)
Russian Federation


Ничо и знать не хочу. Calico Jack только один и на все времена - у Раннингов на 88м


Thanks:
(2) avather, p4B10,
Go to the top of the page
  Insert nick Quick quote
+Quote Post
post Jun 30 2023, 08:20:53
Post #3

Три Литра
***
Group: Завсегдатай
Posts: 217
Releases: 0
On Forums: 9 years 5 months
Thanks: 44 time(s)
Unknown


ЦИТАТА(SAPOGi @ Jun 29 2023, 14:43:28) *
Ничо и знать не хочу. Calico Jack только один и на все времена - у Раннингов на 88м

А зря, группа как минимум неплохая! (IMG:style_emoticons/default/pray.gif)


Thanks:
(1) Ice Gnoll,
Go to the top of the page
  Insert nick Quick quote
+Quote Post
post Jun 30 2023, 09:54:53
Post #4

Маньяк
**********
Group: Металариец
Posts: 1,129
Releases: 51
From: Ивантеевка, Московская область
On Forums: 16 years 4 months
Thanks: 1247 time(s)
Russian Federation


Благодаря Morda_Morda, решил послушать превью. И действительно - симпатично.


Thanks:
Go to the top of the page
  Insert nick Quick quote
+Quote Post
post Jun 30 2023, 23:30:30
Post #5

Три Литра
***
Group: Завсегдатай
Posts: 217
Releases: 0
On Forums: 9 years 5 months
Thanks: 44 time(s)
Unknown


ЦИТАТА(Ice Gnoll @ Jun 30 2023, 09:54:53) *
Благодаря Morda_Morda, решил послушать превью. И действительно - симпатично.

Скажу честно, первый альбом мне больше зашёл, хотя и этот приятный.
Но уж очень тут много схожестей с более известными группами - узнаётся Finntroll, Einherjer...
Go to the top of the page
  Insert nick Quick quote
+Quote Post
post Jul 3 2023, 11:05:01
Post #6

Правь статус, ####!111
**************
Group: Металариец
Posts: 55,763
Releases: 1187
On Forums: 14 years 10 months
Thanks: 54489 time(s)
Russian Federation


ЦИТАТА(SAPOGi @ Jun 29 2023, 16:43:28) *
Ничо и знать не хочу. Calico Jack только один и на все времена - у Раннингов на 88м


Ожидал подобный коммент (IMG:style_emoticons/default/bye.gif)
Go to the top of the page
  Insert nick Quick quote
+Quote Post
post Jul 4 2023, 07:53:18
Post #7

Добрый язычник
**********
Group: Металариец
Posts: 1,057
Releases: 11
From: Санкт-Петербург
On Forums: 18 years 4 months
Thanks: 339 time(s)
Russian Federation


Ну такое, хумпа-хумпа.
Go to the top of the page
  Insert nick Quick quote
+Quote Post
post Jul 29 2023, 20:26:24
Post #8

0%Tolerance
**************
Group: Металариец
Posts: 2,933
Releases: 0
On Forums: 11 years 7 months
Thanks: 561 time(s)
Unknown


ЦИТАТА(SAPOGi @ Jun 29 2023, 14:43:28) *
Ничо и знать не хочу. Calico Jack только один и на все времена - у Раннингов на 88м

У Раннинг Вайлда - Калико Джек -- это конечно пират-митол классика высшего уровня на все времена, однако реальный Калико Джек, он же Джек "Коленкор" Рекхем - пират знатный был в оригинале, если ч0.

Сам стафф с прямым закосом под Running Wild только в третьем треке под названием Bad Fortune, всё остальное бессмысленное теребоньканье под джигу-хумпу в духе Альсторм и Корпиклани для бедных. Финальная пейсня-простыня этой ссанины (на 16 минут) - последний гвоздь в крышку этого дешёвого гроба.
Go to the top of the page
  Insert nick Quick quote
+Quote Post

Reply to this topicStart new topic
1 User(s) are reading this topic (1 Guests and 0 Anonymous Users)
0 Members:

 



- Lo-Fi Version Support form
Copyrights and abuse reports form
Time is now: 17th April 2024 - 23:09:32