Welcome Guest ( Log In | Register )

Объявления

* gmail.com упорно продолжает считать почту с нас "unsolicited" и отбивает в том числе и письма активации, поэтому просьба использовать альтернативные почтовые ящики.
------------
* gmail.com continues reject all mail from us as "unsolicited" (activation mails too) therefore please use alternate mail servers.

> И неформату есть предел.

Рэп/хип-хоп/шансон/поп удаляются. Для них есть свои порталы.

> Alcohol Funnycar - Time To Make The Donuts (1993), Grunge
post Jul 5 2023, 16:21:40
Post #1

Трезвый мастер
Group Icon
Group: Moderation team
Posts: 4,981
Releases: 1
On Forums: 13 years 10 months
Thanks: 2868 time(s)
Russian Federation


(IMG:https://metalarea.org/images/audiocovers/2023_Jul/acov_tid383702_thumb.jpg)

*Artist: Alcohol Funnycar
*Album: Time To Make The Donuts
*Year: 1993
*Genre: Grunge
*Country: United States (IMG:https://metalarea.org/forum/style_images/flags/United%20States.png)
*Format: mp3@CBR320kbps
*Size: 85MB

Tracklist:
1.Shapes 4:10
2. Get It Right 4:41
3. Try To Understand 3:57
4. All About It 3:49
5. Marble Head 1:34
6. Time 4:39
7. Tumble Down 4:06
8. Last Night 3:46
9. Aggravation 3:35
10. AFC Theme Song 2:10
******************************
Total playing time: 36:27

Technical info
(IMG:https://metalarea.org/images/spectrogram/2023_Jul/6e5d52f765869aae3fcf7adf90600035.png)
Input File: 01. Shapes.mp3
Channels : 2
Sample Rate : 44100
Precision : 16-bit
Duration : 00:04:10.40 = 11042508 samples = 18779.8 CDDA sectors
File Size : 10.2M
Bit Rate : 326k
Sample Encoding: MPEG audio (layer I, II or III)
Comments :
Title=Shapes
Artist=Alcohol Funnycar
Album=Time To Make The Donuts
Tracknumber=1/10
Year=1993



Register


Go to the top of the page
  Insert nick Quick quote
+Quote Post
 
Start new topic
Replies (1 - 6)
post Jul 5 2023, 16:29:51
Post #2

Правь статус, ####!111
**************
Group: Металариец
Posts: 55,981
Releases: 1200
On Forums: 14 years 11 months
Thanks: 54843 time(s)
Russian Federation


Обложка - тотальная смехопанорама, эта самодельная тарантайка еще угарнее чем деревянная поделка Флинстоуна (IMG:style_emoticons/default/15.gif)
Go to the top of the page
  Insert nick Quick quote
+Quote Post
post Jul 5 2023, 16:37:40
Post #3

Трезвый мастер
Group Icon
Group: Moderation team
Posts: 4,981
Releases: 1
On Forums: 13 years 10 months
Thanks: 2868 time(s)
Russian Federation


Зато музон отменный (IMG:style_emoticons/default/27.gif)
Go to the top of the page
  Insert nick Quick quote
+Quote Post
post Jul 5 2023, 16:41:17
Post #4

Правь статус, ####!111
**************
Group: Металариец
Posts: 55,981
Releases: 1200
On Forums: 14 years 11 months
Thanks: 54843 time(s)
Russian Federation


Граншшшшш лучше чем у Кобейна?
Go to the top of the page
  Insert nick Quick quote
+Quote Post
post Jul 5 2023, 17:39:35
Post #5

Трезвый мастер
Group Icon
Group: Moderation team
Posts: 4,981
Releases: 1
On Forums: 13 years 10 months
Thanks: 2868 time(s)
Russian Federation


Не... не хуже! (IMG:style_emoticons/default/1488.gif)
Go to the top of the page
  Insert nick Quick quote
+Quote Post
post Jul 5 2023, 17:58:04
Post #6

Правь статус, ####!111
**************
Group: Металариец
Posts: 55,981
Releases: 1200
On Forums: 14 years 11 months
Thanks: 54843 time(s)
Russian Federation


Тагдась может и заценю под настроение)
Go to the top of the page
  Insert nick Quick quote
+Quote Post
post Jul 9 2023, 11:50:20
Post #7

Три Литра
***
Group: Завсегдатай
Posts: 283
Releases: 0
From: Kiev
On Forums: 15 years 4 months
Thanks: 66 time(s)
Ukraine


Неплохо так. Понятия не имел об этой группе хотя казалось бы все что только можно переслушал в жанре


Thanks:
(1) Emm Human,
Go to the top of the page
  Insert nick Quick quote
+Quote Post

Reply to this topicStart new topic
2 User(s) are reading this topic (2 Guests and 0 Anonymous Users)
0 Members:

 



- Lo-Fi Version Support form
Copyrights and abuse reports form
Time is now: 28th May 2024 - 02:25:05