Welcome Guest ( Log In | Register )

Объявления

* gmail.com упорно продолжает считать почту с нас "unsolicited" и отбивает в том числе и письма активации, поэтому просьба использовать альтернативные почтовые ящики.
------------
* gmail.com continues reject all mail from us as "unsolicited" (activation mails too) therefore please use alternate mail servers.

> Forum rules / Правила раздела

Here go releases which can't go to New releases forums due lack of information, stolen links or incorrect data and just founded in other sites links with minimum info. Reissue of this releases through Add release form with added/corrected data, info and own links highly welcomed.

Сюда уходят релизы, не пропущенные в основные релизные форумы по причинам отсутствия, недостаточности или неверности/некорректности сопровождающей информации, содержащие ссылки, указывающие на файлы, залитые не автором темы, а так же просто найденные где-то ссылки с минимумом информации. Переоформление тем отсюда через форму Добавления релиза с перезаливкой ссылок крайне приветствуется.

> Loathe - I Let It In And It Took Everything (2020), Metalcore
post Jul 5 2023, 16:28:09
Post #1

Правь статус, ####!111
**************
Group: Металариец
Posts: 4,846
Releases: 29
From: Holland
On Forums: 17 years 11 months
Thanks: 1952 time(s)
Netherlands


(IMG:https://metalarea.org/images/audiocovers/2023_Jul/acov_tid383704_thumb.jpg)

*Artist: Loathe
*Album: I Let It In And It Took Everything
*Year: 2020
*Genre: Metalcore
*Country: United Kingdom (IMG:https://metalarea.org/forum/style_images/flags/United%20Kingdom.png)
*Format: mp3@CBR320kbps
*Size: 112MB

Tracklist:
1. Theme 1:23
2. Aggressive Evolution 3:27
3. Broken Vision Rhythm (featuring Harry Rule from God Complex) 2:36
4. Two-Way Mirror 5:00
5. 451 Days 1:39
6. New Faces in the Dark 3:12
7. Red Room 2:03
8. Screaming 5:55
9. Is It Really You? 4:48
10. Gored 3:08
11. Heavy Is the Head That Falls with the Weight of a Thousand Thoughts 4:18
12. A Sad Cartoon 5:16
13. A Sad Cartoon (Reprise) 1:15
14. I Let It In and It Took Everything... (featuring Vincente Void of Darke Complex) 5:20
******************************
Total playing time: 49:20


 ! 

Правила, 2.4
 




Extended info
Рип не мой



Technical info
(IMG:https://metalarea.org/images/spectrogram/2023_Jul/54a1ba9f5f1ff8154ebfff5b66abcd28.png)
Input File: 07 - Red Room.mp3
Channels : 2
Sample Rate : 44100
Precision : 16-bit
Duration : 00:02:03.10 = 5428622 samples = 9232.35 CDDA sectors
File Size : 4.96M
Bit Rate : 322k
Sample Encoding: MPEG audio (layer I, II or III)
Comments :
Title=Red Room
Artist=Loathe
Album=I Let It in and It Took Everything
Tracknumber=7
Year=2020
Genre=Progressive Metalcore / Atmospheric / Alt. Metal
Discnumber=1



Register
Go to the top of the page
  Insert nick Quick quote
+Quote Post
 
Start new topic
Replies (1 - 4)
post Jul 12 2023, 10:38:19
Post #2

Правь статус, ####!111
**************
Group: Металариец
Posts: 4,846
Releases: 29
From: Holland
On Forums: 17 years 11 months
Thanks: 1952 time(s)
Netherlands


Потрясающий релиз, очень разнообразный, атмосферный, и качевый, многослойный. Продолжение и усложнение идей прошлого. Обязателен для ознакомления, я считаю.


Thanks:
Go to the top of the page
  Insert nick Quick quote
+Quote Post
post Jul 12 2023, 15:27:49
Post #3

Правдоруб)
**************
Group: Металариец
Posts: 3,062
Releases: 1
From: Украина, Днепр
On Forums: 11 years 1 week
Thanks: 2512 time(s)
Ukraine


ЦИТАТА(Metalass @ Jul 12 2023, 10:38:19) *
Потрясающий релиз, очень разнообразный, атмосферный, и качевый, многослойный. Продолжение и усложнение идей прошлого. Обязателен для ознакомления, я считаю.

Ок, заценю,как раз искал их - в теме Sleep Token их Daale упомянул, заценю. Хоть я не фанатею по металкору, но знаю, что интересные вещи практически в любом поджанре присутствуют.


Thanks:
(1) Metalass,
Go to the top of the page
  Insert nick Quick quote
+Quote Post
post Jul 14 2023, 13:26:51
Post #4

Правь статус, ####!111
**************
Group: Металариец
Posts: 4,846
Releases: 29
From: Holland
On Forums: 17 years 11 months
Thanks: 1952 time(s)
Netherlands


QUOTE(BleedingSun @ Jul 13 2023, 00:27:49) *
Ок, заценю,как раз искал их - в теме Sleep Token их Daale упомянул, заценю. Хоть я не фанатею по металкору, но знаю, что интересные вещи практически в любом поджанре присутствуют.

Металкор тут кстати весьма условен. Что конкретно играют, не решился бы назвать. Поставил металкор чисто чтобы хоть как-то назвать, что-то хотя бы отдаленно характеризующее группу.


Thanks:
Go to the top of the page
  Insert nick Quick quote
+Quote Post
post Jul 14 2023, 13:29:08
Post #5

Правь статус, ####!111
**************
Group: Металариец
Posts: 56,090
Releases: 1210
On Forums: 15 years 1 week
Thanks: 55049 time(s)
Russian Federation


ЦИТАТА(Metalass @ Jul 14 2023, 15:26:51) *
Поставил металкор чисто чтобы хоть как-то назвать, что-то хотя бы отдаленно характеризующее группу.


Надо было у Daale спросить прежде чем стиль прописывать, он у нас все в этом плане знает (IMG:style_emoticons/default/25.gif)
Go to the top of the page
  Insert nick Quick quote
+Quote Post

Reply to this topicStart new topic
1 User(s) are reading this topic (1 Guests and 0 Anonymous Users)
0 Members:

 



- Lo-Fi Version Support form
Copyrights and abuse reports form
Time is now: 14th June 2024 - 07:46:46