Welcome Guest ( Log In | Register )

Объявления

* gmail.com упорно продолжает считать почту с нас "unsolicited" и отбивает в том числе и письма активации, поэтому просьба использовать альтернативные почтовые ящики.
------------
* gmail.com continues reject all mail from us as "unsolicited" (activation mails too) therefore please use alternate mail servers.
 
Reply to this topicStart new topic
> Silent Hill - Silent Hill (2008), Epic Doom Metal
post Jul 10 2023, 11:46:07
Post #1

Правь статус, ####!111
**************
Group: Металариец
Posts: 2,760
Releases: 54
From: Nakhodka
On Forums: 13 years 11 months
Thanks: 2816 time(s)
Russian Federation


(IMG:https://metalarea.org/images/audiocovers/2023_Jul/acov_tid383880_thumb.jpg)

*Artist: Silent Hill
*Album: Silent Hill
*Year: 2008
*Genre: Epic Doom Metal
*Country: Italy (IMG:https://metalarea.org/forum/style_images/flags/Italy.png)
*Format: mp3@CBR320kbps
*Size: 90MB

Tracklist:
1. Intro 00:54
2. October 41 04:13
3. Cold Frontiers 06:02
4. Interlude I 02:20
5. The Solemn Bird 03:54
6. Interlude II 03:53
7. Silent Hill 04:14
8. Interlude to Criteria 03:45
9. Criteria 09:49
******************************
Total playing time: 39:04

(IMG:https://metalarea.org/images/youtube.png)

Extended info
Doom metal band from Rome, Italy, formed in 2003.
After the release of their self-titled album in 2008, the only one to date, Silent Hill began the recording process of a second album.
But Chris Rotten (vocalist) and Richard Gisorse (drummer) died in a car accident on August 9th, 2008.


Technical info
(IMG:https://metalarea.org/images/spectrogram/2023_Jul/75d74f9e68bcf0e4f6f4264c6ab1dfe9.png)
Input File: 2. October 41.mp3
Channels : 2
Sample Rate : 44100
Precision : 16-bit
Duration : 00:04:13.74 = 11190110 samples = 19030.8 CDDA sectors
File Size : 10.3M
Bit Rate : 325k
Sample Encoding: MPEG audio (layer I, II or III)
Comments :
Title=October 41
Artist=Silent Hill
Album=Silent Hill
Tracknumber=02
Year=2008
Genre=Epic Doom Metal



Register


Go to the top of the page
  Insert nick Quick quote
+Quote Post

Reply to this topicStart new topic
2 User(s) are reading this topic (2 Guests and 0 Anonymous Users)
0 Members:

 



- Lo-Fi Version Support form
Copyrights and abuse reports form
Time is now: 27th May 2024 - 23:14:11