Welcome Guest ( Log In | Register )

Объявления

* gmail.com упорно продолжает считать почту с нас "unsolicited" и отбивает в том числе и письма активации, поэтому просьба использовать альтернативные почтовые ящики.
------------
* gmail.com continues reject all mail from us as "unsolicited" (activation mails too) therefore please use alternate mail servers.
 
Reply to this topicStart new topic
> Altwald - Там, Где Вечная Смерть [ep] (2023), Black Metal
post Jul 14 2023, 16:35:19
Post #1

Правь статус, ####!111
**************
Group: Металариец
Posts: 56,157
Releases: 1213
On Forums: 15 years 2 weeks
Thanks: 55102 time(s)
Russian Federation


(IMG:https://metalarea.org/images/audiocovers/2023_Jul/acov_tid384024_thumb.jpg)

*Artist: Altwald
*Album: Там, Где Вечная Смерть [ep]
*Year: 2023
*Genre: Black Metal
*Country: Russian Federation (IMG:https://metalarea.org/forum/style_images/flags/Russian%20Federation.png)
*Format: mp3@CBR320kbps
*Size: 31MB

Tracklist:
1. Старый зимний рассвет
2. Чернобог
3. Там, где вечная смерть
4. Назад возвращаясь, вперёд уходя
******************************
Total playing time: 13:37

Technical info
(IMG:https://metalarea.org/images/spectrogram/2023_Jul/dda45452212a4710a0a2018d1d2520f0.png)
Input File: 01. ALTWALD - Старый зимний рассвет.mp3
Channels : 2
Sample Rate : 44100
Precision : 16-bit
Duration : 00:03:33.21 = 9402341 samples = 15990.4 CDDA sectors
File Size : 8.53M
Bit Rate : 320k
Sample Encoding: MPEG audio (layer I, II or III)
Comments :
Title=Старый зимний рассвет
Artist=Altwald
Album=Там, где вечная смерть
Tracknumber=1
Year=2023
Genre=Black Metal



Register


Go to the top of the page
  Insert nick Quick quote
+Quote Post

Reply to this topicStart new topic
1 User(s) are reading this topic (1 Guests and 0 Anonymous Users)
0 Members:

 



- Lo-Fi Version Support form
Copyrights and abuse reports form
Time is now: 20th June 2024 - 09:31:19