Welcome Guest ( Log In | Register )

Объявления

* gmail.com упорно продолжает считать почту с нас "unsolicited" и отбивает в том числе и письма активации, поэтому просьба использовать альтернативные почтовые ящики.
------------
* gmail.com continues reject all mail from us as "unsolicited" (activation mails too) therefore please use alternate mail servers.
 
Reply to this topicStart new topic
> Ember Sea - Meet Me By The Fire [ep] (2023), Gothic Metal
post Jul 14 2023, 17:27:03
Post #1

Правь статус, ####!111
**************
Group: Металариец
Posts: 7,619
Releases: 6969
From: Одесса
On Forums: 16 years 2 weeks
Thanks: 81296 time(s)
Ukraine


(IMG:https://metalarea.org/images/audiocovers/2023_Jul/acov_tid384026_thumb.jpg)

*Artist: Ember Sea
*Album: Meet Me By The Fire [ep]
*Year: 2023
*Genre: Gothic Metal
*Country: Germany (IMG:https://metalarea.org/forum/style_images/flags/Germany.png)
*Format: mp3@CBR320kbps
*Size: 38MB

Tracklist:
1. Meet Me by the Fire 06:35
2. Meet Me by the Fire (Radio edit) 04:22
3. Shine (My Dying Star) 04:56
******************************
Total playing time: 15:53



Extended info
Line - up:

Enrico Mier - Drums
Stefan Santag - Guitars (Don't Deashcore aus Seesen am Harz, ex-Forever It Shall Be)
Pablo J. Tammen - Bass (ex-Winterdome, ex-Human Fortress)
Dirk Marquardt - Keyboards (ex-Human Fortress)
Eva Gerland - Vocals

For all you brave, sometimes doubtful, ever-sanguine wayfarers...This one is for you.
'Meet Me by the Fire' is a captivating power ballad to soothe your bruised souls. Prepare for an emotional journey of trust in the path you must tread to find the ones you love. Though the road may be treacherous and daunting, those who persevere shall be rewarded with the warmth of blazing fire.



Technical info
(IMG:https://metalarea.org/images/spectrogram/2023_Jul/9282068c325b0d93e2137319fb4a56fc.png)
Input File: 02 - Meet Me by the Fire (Radio Edit).mp3
Channels : 2
Sample Rate : 44100
Precision : 16-bit
Duration : 00:04:22.00 = 11554200 samples = 19650 CDDA sectors
File Size : 10.5M
Bit Rate : 320k
Sample Encoding: MPEG audio (layer I, II or III)
Comments :
Title=Meet Me by the Fire (Radio Edit)
Artist=Ember Sea
Album=Meet Me by the Fire (Single)
Tracknumber=2
Year=2023-07-14
Genre=Gothic Metal



Register


Go to the top of the page
  Insert nick Quick quote
+Quote Post

Reply to this topicStart new topic
1 User(s) are reading this topic (1 Guests and 0 Anonymous Users)
0 Members:

 



- Lo-Fi Version Support form
Copyrights and abuse reports form
Time is now: 20th June 2024 - 10:05:58