Welcome Guest ( Log In | Register )

Объявления

* gmail.com упорно продолжает считать почту с нас "unsolicited" и отбивает в том числе и письма активации, поэтому просьба использовать альтернативные почтовые ящики.
------------
* gmail.com continues reject all mail from us as "unsolicited" (activation mails too) therefore please use alternate mail servers.
> Keys To The Astral Gates And Mystic Doors - Keys To The Astral Gates And Mystic Doors [demo] (2023), Raw Black Metal
post Jul 17 2023, 04:25:11
Post #1

Absorbence
**************
Group: Металариец
Posts: 2,571
Releases: 684
From: Vastland Abyss of Cthulhu
On Forums: 17 years 5 months
Thanks: 11416 time(s)
United States


(IMG:https://metalarea.org/images/audiocovers/2023_Jul/acov_tid384094_thumb.jpg)

*Artist: Keys To The Astral Gates And Mystic Doors
*Album: Keys To The Astral Gates And Mystic Doors [demo]
*Year: 2023
*Genre: Raw Black Metal
*Country: United States (IMG:https://metalarea.org/forum/style_images/flags/United%20States.png)
*Format: mp3@CBR320kbps
*Size: 48MB

Tracklist:
1. Knell 01:27
2. The Lighting of the Treasured Candles 05:31
3. Untitled / Thoroughfare of Disillusionment 06:48
4. Eternal Crushing Heat 06:13
******************************
Total playing time: 19:59



Extended info
The debut demo from Madison based raw black metal practitioners: Keys To The Astral Gates And Mystic Doors. Raw, bludgeoning, lo-fi incantations scatter the first eponymous recording coming out of the howling midwest.

HAIL DIY. HAIL MADISON BLACK METAL. HAIL EMPTY PIT.
credits
released July 14, 2023

Pit Dweller - Guitar/Drums/Bass
Ludwig the Bloodsucker - Vox/Synth


Technical info
(IMG:https://metalarea.org/images/spectrogram/2023_Jul/87ded78f22839f5626afebed667c61ef.png)
Input File: 03 - Untitled_Thoroughfare of Disillusionment.mp3
Channels : 2
Sample Rate : 44100
Precision : 16-bit
Duration : 00:06:48.37 = 18009161 samples = 30627.8 CDDA sectors
File Size : 16.5M
Bit Rate : 322k
Sample Encoding: MPEG audio (layer I, II or III)
Comments :
Title=Untitled/Thoroughfare of Disillusionment
Artist=Keys To The Astral Gates And Mystic Doors
Album=Keys To The Astral Gates And Mystic Doors
Tracknumber=03/04
Year=2023
Genre=Raw Black Metal



Register


Go to the top of the page
  Insert nick Quick quote
+Quote Post
 
Start new topic
Replies (1 - 6)
post Jul 17 2023, 09:49:49
Post #2

7 литров
******
Group: Металариец
Posts: 515
Releases: 0
On Forums: 16 years 8 months
Thanks: 278 time(s)
Ukraine


парашный, унылый вкбм. Я думал такого уже давно нет.
Go to the top of the page
  Insert nick Quick quote
+Quote Post
post Jul 19 2023, 19:28:58
Post #3

кручу наждак
**************
Group: Металариец
Posts: 6,508
Releases: 110
From: Самара
On Forums: 13 years 11 months
Thanks: 5048 time(s)
Russian Federation


Ну не совсем уж парашный, но и не выдающийся.
Go to the top of the page
  Insert nick Quick quote
+Quote Post
post Jul 19 2023, 19:37:04
Post #4

Правь статус, ####!111
**************
Group: Металариец
Posts: 55,815
Releases: 1189
On Forums: 14 years 10 months
Thanks: 54553 time(s)
Russian Federation


Зато и лого и обложка шедевральны (IMG:style_emoticons/default/true_black.gif) (IMG:style_emoticons/default/pray.gif)


Thanks:
(1) Occultas,
Go to the top of the page
  Insert nick Quick quote
+Quote Post
post Jul 19 2023, 20:24:16
Post #5

______________
***********
Group: Металариец
Posts: 1,718
Releases: 0
On Forums: 4 years 5 months
Thanks: 535 time(s)
Unknown


ЦИТАТА(vosmidesijatye @ Jul 19 2023, 19:37:04) *
Зато и лого и обложка шедевральны (IMG:style_emoticons/default/true_black.gif) (IMG:style_emoticons/default/pray.gif)

В этом году уже было похожее:

(IMG:https://f4.bcbits.com/img/a1742350237_10.jpg)


Thanks:
Go to the top of the page
  Insert nick Quick quote
+Quote Post
post Jul 19 2023, 20:32:45
Post #6

Правь статус, ####!111
**************
Group: Металариец
Posts: 55,815
Releases: 1189
On Forums: 14 years 10 months
Thanks: 54553 time(s)
Russian Federation


Тож в копилку (IMG:style_emoticons/default/27.gif)
Go to the top of the page
  Insert nick Quick quote
+Quote Post
post Jul 20 2023, 09:39:47
Post #7

______________
***********
Group: Металариец
Posts: 1,718
Releases: 0
On Forums: 4 years 5 months
Thanks: 535 time(s)
Unknown


ЦИТАТА(vosmidesijatye @ Jul 19 2023, 20:32:45) *
Тож в копилку (IMG:style_emoticons/default/27.gif)

К слову, я тоже считаю новаторским этот сигилообразный стиль логотипов.
Go to the top of the page
  Insert nick Quick quote
+Quote Post

Reply to this topicStart new topic
1 User(s) are reading this topic (1 Guests and 0 Anonymous Users)
0 Members:

 



- Lo-Fi Version Support form
Copyrights and abuse reports form
Time is now: 25th April 2024 - 16:40:19