Welcome Guest ( Log In | Register )

Объявления

* gmail.com упорно продолжает считать почту с нас "unsolicited" и отбивает в том числе и письма активации, поэтому просьба использовать альтернативные почтовые ящики.
------------
* gmail.com continues reject all mail from us as "unsolicited" (activation mails too) therefore please use alternate mail servers.
 
Reply to this topicStart new topic
> Amras Numenesse - Injustice (2023), Progressive Black Metal (D4)
post Jul 22 2023, 02:35:39
Post #1

Правь статус, ####!111
**************
Group: Металариец
Posts: 8,968
Releases: 7206
On Forums: 13 years 6 months
Thanks: 126968 time(s)
Italy


(IMG:https://metalarea.org/images/audiocovers/2023_Jul/acov_tid384283_thumb.jpg)

*Artist: Amras Numenesse
*Album: Injustice
*Year: 2023
*Genre: Progressive Black Metal
*Country: Turkey (IMG:https://metalarea.org/forum/style_images/flags/Turkey.png)
*Format: mp3@CBR320kbps
*Size: 100MB

Tracklist:
1.Classicism 04:06
2.Expressionism 05:26
3.Impressionism 03:48
4.Realism 05:40
5.Neoclassicism 11:37
6.Abstract 06:50
7.Romance 06:07
******************************
Total playing time: 43:34



Technical info
(IMG:https://metalarea.org/images/spectrogram/2023_Jul/8f0d822fa1e25b30cc801072c8514986.png)
Input File: 3.Impressionism.mp3
Channels : 2
Sample Rate : 44100
Precision : 16-bit
Duration : 00:03:48.90 = 10094490 samples = 17167.5 CDDA sectors
File Size : 10.2M
Bit Rate : 357k
Sample Encoding: MPEG audio (layer I, II or III)
Comments :
Title=Impressionism
Artist=Amras Numenesse
Album=Injustice
Tracknumber=3/7
Year=2023
Discnumber=1/1



Register


Go to the top of the page
  Insert nick Quick quote
+Quote Post

Reply to this topicStart new topic
1 User(s) are reading this topic (1 Guests and 0 Anonymous Users)
0 Members:

 



- Lo-Fi Version Support form
Copyrights and abuse reports form
Time is now: 30th May 2024 - 21:03:58