Welcome Guest ( Log In | Register )

Объявления

* gmail.com упорно продолжает считать почту с нас "unsolicited" и отбивает в том числе и письма активации, поэтому просьба использовать альтернативные почтовые ящики.
------------
* gmail.com continues reject all mail from us as "unsolicited" (activation mails too) therefore please use alternate mail servers.

> И неформату есть предел.

Рэп/хип-хоп/шансон/поп удаляются. Для них есть свои порталы.

 
Reply to this topicStart new topic
> Demonologist & Utarm - Demonologists/Utarm [split] (2020), Noise | Experimental Black Metal/Noise (D)
post Jul 24 2023, 07:45:11
Post #1

Два Литра
**
Group: Подсевший
Posts: 100
Releases: 89
From: Москва
On Forums: 14 years 6 months
Thanks: 1869 time(s)
Unknown


(IMG:https://metalarea.org/images/audiocovers/2023_Jul/acov_tid384365_thumb.jpg)

*Artist: Demonologist & Utarm
*Album: Demonologists/Utarm [split]
*Year: 2020
*Genre: Noise | Experimental Black Metal/Noise
*Country: United States (IMG:https://metalarea.org/forum/style_images/flags/United%20States.png) | Norway (IMG:https://metalarea.org/forum/style_images/flags/Norway.png)
*Format: mp3@CBR320kbps
*Size: 128MB

Tracklist:
Demonologists:
1. Pro Ghost / Pro Haunt I 5:18
2. Pro Ghost / Pro Haunt II 5:33
3. Howling Spectre 3:56
4. Halo Seizures 7:08
Utarm:
5. Into The Rotting Silence 32:21
******************************
Total playing time: 54:16

Technical info
(IMG:https://metalarea.org/images/spectrogram/2023_Jul/9bc419581c6a71c4ed6bc19617867fb0.png)
Input File: 05 Into the Rotting Silence.mp3
Channels : 2
Sample Rate : 44100
Precision : 16-bit
Duration : 00:32:21.27 = 85610183 samples = 145596 CDDA sectors
File Size : 77.8M
Bit Rate : 320k
Sample Encoding: MPEG audio (layer I, II or III)
Comments :
Title=Into the Rotting Silence
Artist=Utarm
Album=Demonologist / Utarm
Tracknumber=5
Year=2020
Genre=138



Register


Go to the top of the page
  Insert nick Quick quote
+Quote Post
post Apr 20 2024, 09:02:42
Post #2

Правь статус, ####!111
**************
Group: Металариец
Posts: 4,548
Releases: 0
From: UK
On Forums: 8 years 3 weeks
Thanks: 1217 time(s)
United Kingdom


Please can you reup
Go to the top of the page
  Insert nick Quick quote
+Quote Post

Reply to this topicStart new topic
1 User(s) are reading this topic (1 Guests and 0 Anonymous Users)
0 Members:

 



- Lo-Fi Version Support form
Copyrights and abuse reports form
Time is now: 19th July 2024 - 13:35:58