Welcome Guest ( Log In | Register )

Объявления

* gmail.com упорно продолжает считать почту с нас "unsolicited" и отбивает в том числе и письма активации, поэтому просьба использовать альтернативные почтовые ящики.
------------
* gmail.com continues reject all mail from us as "unsolicited" (activation mails too) therefore please use alternate mail servers.
> Imperial Sin - Reality Denied (2023), Groove/Death Metal
post Jul 26 2023, 22:49:10
Post #1

Правь статус, ####!111
**************
Group: Металариец
Posts: 35,961
Releases: 26798
From: Г.Харьков
On Forums: 12 years 2 weeks
Thanks: 581424 time(s)
Ukraine


(IMG:https://metalarea.org/images/audiocovers/2023_Jul/acov_tid384446_thumb.jpg)

*Artist: Imperial Sin
*Album: Reality Denied
*Year: 2023
*Genre: Groove/Death Metal
*Country: Poland (IMG:https://metalarea.org/forum/style_images/flags/Poland.png)
*Format: mp3@CBR320kbps
*Size: 79MB

Tracklist:
1. Who I Am 02:36
2. High Pressure 03:01
3. Killing Shot 05:05
4. Sudden Revelation 04:25
5. Reality Denied 03:07
6. Path of Negation 04:51
7. Wheel of Torment 04:49
8. Life, Death, Unity 05:31
******************************
Total playing time: 33:25




Extended info
Paweł Wichary Bass
Karol Lerch Guitars
Bartłomiej Pluciński Drums
Mateusz Sibila Vocals


Technical info
(IMG:https://metalarea.org/images/spectrogram/2023_Jul/55b147899d9c4e195474d5c89dd70759.png)
Input File: 07 - Wheel Of Torment.mp3
Channels : 2
Sample Rate : 44100
Precision : 16-bit
Duration : 00:04:49.00 = 12744900 samples = 21675 CDDA sectors
File Size : 11.8M
Bit Rate : 327k
Sample Encoding: MPEG audio (layer I, II or III)
Comments :
Title=Wheel Of Torment
Artist=Imperial Sin
Album=Reality Denied
Tracknumber=7
Year=2023-07-26
Genre=Metal
Discnumber=1



Register


Go to the top of the page
  Insert nick Quick quote
+Quote Post
 
Start new topic
Replies (1 - 2)
post Jul 27 2023, 06:29:50
Post #2

Восемь Литров
********
Group: Металариец
Posts: 875
Releases: 0
On Forums: 17 years 5 months
Thanks: 123 time(s)
Russian Federation


Грув здесь отсутствует, может если только в 4 и 5 треках. Остальное это блэк дэт, как у Бегемота, да и похожи они на них очень сильно. Те же размазанные гитары, оруще-хрипящий вокал, мрачная атмосфера. В целом хорошая работа.


Thanks:
Go to the top of the page
  Insert nick Quick quote
+Quote Post
post Oct 3 2023, 14:26:56
Post #3

Правь статус, ####!111
**************
Group: Металариец
Posts: 2,456
Releases: 0
On Forums: 15 years 3 months
Thanks: 985 time(s)
Antarctica


Неплохой грув/дэт, но цепляющих моментов маловато, 6/10.
Go to the top of the page
  Insert nick Quick quote
+Quote Post

Reply to this topicStart new topic
2 User(s) are reading this topic (2 Guests and 0 Anonymous Users)
0 Members:

 



- Lo-Fi Version Support form
Copyrights and abuse reports form
Time is now: 29th May 2024 - 09:17:22