Welcome Guest ( Log In | Register )

> Wolfmoon - В​і​р​ш​і П​р​и​н​е​с​е​н​і В​і​т​р​а​м​и (2023), Black Metal
post Jul 28 2023, 18:11:13
Post #1

Правь статус, ####!111
**************
Group: Металариец
Posts: 35,018
Releases: 26033
From: Г.Харьков
On Forums: 11 years 9 months
Thanks: 559806 time(s)
Ukraine


(IMG:https://metalarea.org/images/audiocovers/2023_Jul/acov_tid384559_thumb.jpg)

*Artist: Wolfmoon
*Album: В​і​р​ш​і П​р​и​н​е​с​е​н​і В​і​т​р​а​м​и
*Year: 2023
*Genre: Black Metal
*Country: Ukraine (IMG:https://metalarea.org/forum/style_images/flags/Ukraine.png)
*Format: mp3@CBR320kbps
*Size: 78MB

Tracklist:
1. Падіння 06:28
2. Сон...Сон Що Не Прийшов 04:36 instrumental
3. Думки - отрута моєї душі 05:26
4. Вечірній вид степу широкого 06:38 instrumental
5. М​е​л​а​н​х​о​л​і​я 04:00
6. В​і​р​ш​і п​р​и​н​е​с​е​н​і в​і​т​р​а​м​и 07:03
******************************
Total playing time: 34:11


Preview 2

Extended info
Symargl Guitars, Bass, Vocals (2020-present)


Technical info
(IMG:https://metalarea.org/images/spectrogram/2023_Jul/4102279b9cd30fc64dad1f49171b97bb.png)
Input File: Wolfmoon - Вірші принесені вітрами - 04 Вечірній Вид Степу Широкого.mp3
Channels : 2
Sample Rate : 44100
Precision : 16-bit
Duration : 00:06:38.08 = 17555108 samples = 29855.6 CDDA sectors
File Size : 16.0M
Bit Rate : 321k
Sample Encoding: MPEG audio (layer I, II or III)
Comments :
Title=Вечірній Вид Степу Широкого
Artist=Wolfmoon
Album=Вірші принесені вітрами
Tracknumber=4
Year=2023



Register


Go to the top of the page
  Insert nick Quick quote
+Quote Post
 
Start new topic
Replies (1 - 1)
post Sep 18 2023, 14:24:38
Post #2

Правь статус, ####!111
**************
Group: Металариец
Posts: 2,491
Releases: 6
From: Kyiv
On Forums: 16 years 3 months
Thanks: 326 time(s)
Ukraine


Та щось якась кустарщина.
Go to the top of the page
  Insert nick Quick quote
+Quote Post

Reply to this topicStart new topic
1 User(s) are reading this topic (1 Guests and 0 Anonymous Users)
0 Members:

 



- Lo-Fi Version Support form
Copyrights and abuse reports form
Time is now: 23rd February 2024 - 10:15:49