Welcome Guest ( Log In | Register )

Объявления

* gmail.com упорно продолжает считать почту с нас "unsolicited" и отбивает в том числе и письма активации, поэтому просьба использовать альтернативные почтовые ящики.
------------
* gmail.com continues reject all mail from us as "unsolicited" (activation mails too) therefore please use alternate mail servers.
> Kutkh - Kilvey (2023), Atmospheric Black Metal (D8)
post Jul 30 2023, 14:14:46
Post #1

Правь статус, 616
**************
Group: Металариец
Posts: 10,768
Releases: 8771
From: 55°35’N 38°08’E
On Forums: 15 years 10 months
Thanks: 155995 time(s)
Russian Federation


(IMG:https://metalarea.org/images/audiocovers/2023_Jul/acov_tid384606_thumb.jpg)

*Artist: Kutkh
*Album: Kilvey
*Year: 2023
*Genre: Atmospheric Black Metal
*Country: Russian Federation (IMG:https://metalarea.org/forum/style_images/flags/Russian%20Federation.png)
*Format: mp3@CBR320kbps
*Size: 94MB

Tracklist:
1.Kilvey Part I - Fear In Old Eyes 09:38
2.Kilvey Part II - Blood As A Gift 09:40
3.Kilvey Part III - Death In Old Eyes 09:10
4.Kilvey Part IV - Parting 11:49
******************************
Total playing time: 40:17



Technical info
(IMG:https://metalarea.org/images/spectrogram/2023_Jul/c3d5a184847f2d8f2b6bcf0238e21e44.png)
Input File: 01 Kilvey Part I - Fear In Old Eyes.mp3
Channels : 2
Sample Rate : 44100
Precision : 16-bit
Duration : 00:09:38.13 = 25495313 samples = 43359.4 CDDA sectors
File Size : 23.2M
Bit Rate : 321k
Sample Encoding: MPEG audio (layer I, II or III)
Comments :
Title=Kilvey Part I - Fear In Old Eyes
Artist=Kutkh
Album=Kilvey
Tracknumber=1
Year=2023
Genre=Black Metal



Register


Go to the top of the page
  Insert nick Quick quote
+Quote Post
 
Start new topic
Replies (1 - 1)
post Jul 30 2023, 17:00:13
Post #2

Пять Литров
*****
Group: Металариец
Posts: 482
Releases: 20
From: СПб, Купчино
On Forums: 18 years 6 months
Thanks: 646 time(s)
Russian Federation


А мыши где?
Go to the top of the page
  Insert nick Quick quote
+Quote Post

Reply to this topicStart new topic
1 User(s) are reading this topic (1 Guests and 0 Anonymous Users)
0 Members:

 



- Lo-Fi Version Support form
Copyrights and abuse reports form
Time is now: 27th May 2024 - 22:53:41