Welcome Guest ( Log In | Register )

Объявления

* gmail.com упорно продолжает считать почту с нас "unsolicited" и отбивает в том числе и письма активации, поэтому просьба использовать альтернативные почтовые ящики.
------------
* gmail.com continues reject all mail from us as "unsolicited" (activation mails too) therefore please use alternate mail servers.
> Burning Sun - Wake Of Ashes (2023), Heavy/Power/Speed Metal
post Jul 30 2023, 15:20:43
Post #1

Правь статус, ####!111
**************
Group: Металариец
Posts: 35,962
Releases: 26798
From: Г.Харьков
On Forums: 12 years 2 weeks
Thanks: 581427 time(s)
Ukraine


(IMG:https://metalarea.org/images/audiocovers/2023_Jul/acov_tid384609_thumb.jpg)

*Artist: Burning Sun
*Album: Wake Of Ashes
*Year: 2023
*Genre: Heavy/Power/Speed Metal
*Country: Hungary (IMG:https://metalarea.org/forum/style_images/flags/Hungary.png)
*Format: mp3@CBR320kbps
*Size: 77MB

Tracklist:
1. Emaly 04:16
2. Bend the World 03:40
3. Way of the Paladin 04:12
4. Hundred Lions 03:55
5. Templar's Verdict 03:07
6. Golden Wings 04:10
7. Darkfang Keep 04:29
8. Under the Burning Sun 05:53
******************************
Total playing time: 33:42




Extended info
Zoltán Papi Bass (2022-present)
Pancho Ireland Vocals, Guitars (2022-present)
See also: Merciless Law


Technical info
(IMG:https://metalarea.org/images/spectrogram/2023_Jul/2955803870f10a956ebe140c096f7e2b.png)
Input File: 08 - Under the Burning Sun.mp3
Channels : 2
Sample Rate : 44100
Precision : 16-bit
Duration : 00:05:53.49 = 15588689 samples = 26511.4 CDDA sectors
File Size : 14.1M
Bit Rate : 320k
Sample Encoding: MPEG audio (layer I, II or III)
Comments :
Title=Under the Burning Sun
Artist=Burning Sun
Album=Wake of Ashes
Tracknumber=8
Year=2023



Register


Go to the top of the page
  Insert nick Quick quote
+Quote Post
 
Start new topic
Replies (1 - 6)
post Jul 30 2023, 16:11:19
Post #2
BAN
Banned till
Aug 13 273792724, 19:46:46



Повер. Притом White Skull, хучь и без жонщин.
Некисло, некисло.


Thanks:
Go to the top of the page
  Insert nick Quick quote
+Quote Post
post Jul 30 2023, 18:53:35
Post #3

Правь статус, ####!111
**************
Group: Металариец
Posts: 3,768
Releases: 0
From: Sofia
On Forums: 16 years 8 months
Thanks: 134 time(s)
Bulgaria


Great Album !! (IMG:style_emoticons/default/metaler.gif) (IMG:style_emoticons/default/metaler.gif) (IMG:style_emoticons/default/metaler.gif)


Thanks:
Go to the top of the page
  Insert nick Quick quote
+Quote Post
post Jul 31 2023, 07:31:51
Post #4

Восемь Литров
********
Group: Металариец
Posts: 875
Releases: 0
On Forums: 17 years 5 months
Thanks: 123 time(s)
Russian Federation


Старый добрый хэви пауэр, че еще сказать.


Thanks:
Go to the top of the page
  Insert nick Quick quote
+Quote Post
post Jul 31 2023, 14:39:27
Post #5

Правь статус, ####!111
**************
Group: Металариец
Posts: 35,962
Releases: 26798
From: Г.Харьков
On Forums: 12 years 2 weeks
Thanks: 581427 time(s)
Ukraine


FLAC (Tracks) 233 mb
Register


Go to the top of the page
  Insert nick Quick quote
+Quote Post
post Aug 7 2023, 06:18:46
Post #6

Восемь Литров
********
Group: Металариец
Posts: 848
Releases: 0
On Forums: 14 years 10 months
Thanks: 211 time(s)
Ukraine


Отличный альбом,спасибо!!!!


Thanks:
Go to the top of the page
  Insert nick Quick quote
+Quote Post
post Aug 29 2023, 21:29:43
Post #7

21st Century Schizoid Man
**************
Group: Металариец
Posts: 8,450
Releases: 318
From: 1984
On Forums: 16 years 3 weeks
Thanks: 9409 time(s)
Unknown


Зачётная дискотека! Отличный качающий пауэр. (IMG:style_emoticons/default/banana.gif)


Thanks:
Go to the top of the page
  Insert nick Quick quote
+Quote Post

Reply to this topicStart new topic
2 User(s) are reading this topic (2 Guests and 0 Anonymous Users)
0 Members:

 



- Lo-Fi Version Support form
Copyrights and abuse reports form
Time is now: 29th May 2024 - 10:39:08