Welcome Guest ( Log In | Register )

Объявления

* gmail.com упорно продолжает считать почту с нас "unsolicited" и отбивает в том числе и письма активации, поэтому просьба использовать альтернативные почтовые ящики.
------------
* gmail.com continues reject all mail from us as "unsolicited" (activation mails too) therefore please use alternate mail servers.
> Neargroth - Hatred Of Sighi​ş​oara (2023), Black Metal
post Aug 8 2023, 01:23:05
Post #1

Правь статус, ####!111
**************
Group: Металариец
Posts: 8,946
Releases: 7184
On Forums: 13 years 6 months
Thanks: 126572 time(s)
Italy


(IMG:https://metalarea.org/images/audiocovers/2023_Aug/acov_tid384855_thumb.jpg)

*Artist: Neargroth
*Album: Hatred Of Sighi​ş​oara
*Year: 2023
*Genre: Black Metal
*Country: Russian Federation (IMG:https://metalarea.org/forum/style_images/flags/Russian%20Federation.png)
*Format: mp3@CBR320kbps
*Size: 80MB

Tracklist:
1.Soul Torment 03:07
2.Darkness 03:09
3.Venom 05:00
4.Sare 03:18
5.Lumification 05:25
6.Gaulopik 04:38
7.Massacre 04:26
8.Hatred of Sighisoara 02:35
******************************
Total playing time: 31:38



Technical info
(IMG:https://metalarea.org/images/spectrogram/2023_Aug/213a791135270434cf20ea7dc1a1710d.png)
Input File: 6.Gaulopik.mp3
Channels : 2
Sample Rate : 44100
Precision : 16-bit
Duration : 00:04:38.20 = 12268444 samples = 20864.7 CDDA sectors
File Size : 12.1M
Bit Rate : 348k
Sample Encoding: MPEG audio (layer I, II or III)
Comments :
Title=Gaulopik
Artist=Neargroth
Album=Hatred of Sighişoara
Tracknumber=6/8
Year=2023
Discnumber=1/1



Register


Go to the top of the page
  Insert nick Quick quote
+Quote Post
 
Start new topic
Replies (1 - 2)
post Aug 8 2023, 09:18:42
Post #2

Шесть Литров
******
Group: Металариец
Posts: 584
Releases: 0
On Forums: 15 years 4 months
Thanks: 446 time(s)
Brazil


ЦИТАТА(kefka @ Aug 8 2023, 03:23:05) *
*Artist: Neargroth
*Album: Sighi​ş​oara ist Krieg



Thanks:
Go to the top of the page
  Insert nick Quick quote
+Quote Post
post Sep 27 2023, 20:48:46
Post #3

Full-of-Hate
**************
Group: Металариец
Posts: 5,753
Releases: 0
From: Moscow
On Forums: 14 years 10 months
Thanks: 7066 time(s)
Russian Federation


Тяжело сказать, но возможно это самое несуразное дерьмище, которое я видел на российской сцене за последние лет десять, со времен когда еще свои говно-альбомы по сто рублей не знала как продать Arcana Imperia.

Вот выдержка из Bandcamp
Андерграунд Блэк метал группа из Москвы.
Изначально группа состояла из одного человека, в целях куда то выплескивать свой материал. Позже найдя единомышленников в лице второй гитары, барабанщика, вокалиста и басиста они вместе начали творить свою идею.
Каждая наша песня непохожа не предыдущую, каждый раз что то новое и своеобразное, в основном это рубилово с элементами норвежско-финского стиля.


Что говорить о группе, которая не может представить себя без грамматических ошибок?
Послушал этот убогий высер... не слышу ни Норвегии, ни Финляндии. Слышу как школьник напукал в дешевый микрофон под драм-машину из гитар-про и криво сыграл на нестройной гитаре собственные бесхитростные партии. Судя по странице ВК, перед нами почти благополучные дети, возможно даже где-то учащиеся. Зачем с таким материалом выпускать альбом и выходить на сцену - вопрос риторический. Альбом не несет в себе никакой художественной ценности, в принципе, это wannabe-project, где вчера открывшие для себя жанр мальчики и девочки стали наигрывать риффы рандомных групп и переставлять в них ноты, выдавая за свое уникальное охренительное творчество.

Мирные ребята на самом деле
https://vk.com/blackmassacreintver?w=wall-215863561_1849
Мы играем как мАрдук и Марк Фюнерал (с)
Go to the top of the page
  Insert nick Quick quote
+Quote Post

Reply to this topicStart new topic
1 User(s) are reading this topic (1 Guests and 0 Anonymous Users)
0 Members:

 



- Lo-Fi Version Support form
Copyrights and abuse reports form
Time is now: 26th May 2024 - 10:38:31