Welcome Guest ( Log In | Register )

Объявления

* gmail.com упорно продолжает считать почту с нас "unsolicited" и отбивает в том числе и письма активации, поэтому просьба использовать альтернативные почтовые ящики.
------------
* gmail.com continues reject all mail from us as "unsolicited" (activation mails too) therefore please use alternate mail servers.
> Contrail Architects - Guarded Cave [ep] (2023), Heavy/Progressive Metal
post Aug 14 2023, 04:20:18
Post #1

Правь статус, ####!111
**************
Group: Металариец
Posts: 8,958
Releases: 7194
On Forums: 13 years 6 months
Thanks: 126841 time(s)
Italy


(IMG:https://metalarea.org/images/audiocovers/2023_Aug/acov_tid385062_thumb.jpg)

*Artist: Contrail Architects
*Album: Guarded Cave [ep]
*Year: 2023
*Genre: Heavy/Progressive Metal
*Country: International (IMG:https://metalarea.org/forum/style_images/flags/International.png)
*Format: mp3@CBR320kbps
*Size: 70MB

Tracklist:
1.Gears And Sprigs 02:14
2.Life Delayed 05:23
3.When All Comes Down 04:36
4.Asylum 05:19
5.One Against All 04:44
6.Offstage 02:48
7.On Smoldering Wings 04:34
******************************
Total playing time: 29:38



Technical info
(IMG:https://metalarea.org/images/spectrogram/2023_Aug/28ccc3a7b1fe6f49abadc26392d05a10.png)
Input File: 3.When All Comes Down.mp3
Channels : 2
Sample Rate : 44100
Precision : 16-bit
Duration : 00:04:36.45 = 12191269 samples = 20733.5 CDDA sectors
File Size : 11.5M
Bit Rate : 333k
Sample Encoding: MPEG audio (layer I, II or III)
Comments :
Title=When All Comes Down
Artist=Contrail Architects
Album=Guarded Cave
Tracknumber=3/7
Year=2023
Discnumber=1/1



Register


Go to the top of the page
  Insert nick Quick quote
+Quote Post
 
Start new topic
Replies (1 - 1)
post Aug 14 2023, 12:35:47
Post #2

Восемь Литров
********
Group: Металариец
Posts: 875
Releases: 0
On Forums: 17 years 5 months
Thanks: 123 time(s)
Russian Federation


Начнем с того, что хэви там нет вообще. Синт дрим прог метал, последний трек, кстати самый профессионально сделанный в альбоме, напоминает австралийский Вояджер. Красивые мелодии, клавишные партии ваще мое почтение. А вот к реализации большие претензии. Вокал во-первых тонет в очень шумных гитарах, во-вторых вокалист все таки не поет, а говорит растягивая, над этим надо работать. Ну и акцент очень режет слух. Отдельная тема это басы, басов ну просто до хрена! Кароч, со звуком надо что то делать, а так альбом можно назвать замечательным, если б не адский звук.


Thanks:
(1) avather,
Go to the top of the page
  Insert nick Quick quote
+Quote Post

Reply to this topicStart new topic
2 User(s) are reading this topic (2 Guests and 0 Anonymous Users)
0 Members:

 



- Lo-Fi Version Support form
Copyrights and abuse reports form
Time is now: 29th May 2024 - 09:15:19