Welcome Guest ( Log In | Register )

Объявления

* gmail.com упорно продолжает считать почту с нас "unsolicited" и отбивает в том числе и письма активации, поэтому просьба использовать альтернативные почтовые ящики.
------------
* gmail.com continues reject all mail from us as "unsolicited" (activation mails too) therefore please use alternate mail servers.
> Horrendous - Ontological Mysterium (2023), Death Metal
post Aug 16 2023, 13:49:33
Post #1

Правь статус, ####!111
**************
Group: Металариец
Posts: 35,954
Releases: 26795
From: Г.Харьков
On Forums: 12 years 2 weeks
Thanks: 581284 time(s)
Ukraine


(IMG:https://metalarea.org/images/audiocovers/2023_Aug/acov_tid385128_thumb.jpg)

*Artist: Horrendous
*Album: Ontological Mysterium
*Year: 2023
*Genre: Death Metal
*Country: United States (IMG:https://metalarea.org/forum/style_images/flags/United%20States.png)
*Format: mp3@CBR320kbps
*Size: 86MB

Tracklist:
1. The Blaze 02:00
2. Chrysopoeia (The Archaeology of Dawn) 07:16
3. Neon Leviathan 03:30
4. Aurora Neoterica 01:56
5. Preterition Hymn 03:58
6. Cult of Shaad'oah 05:24
7. Exeg(en)esis 03:38
8. Ontological Mysterium 04:44
9. The Death Knell Ringeth 05:20
******************************
Total playing time: 37:46




Extended info
Jamie Knox Drums
Matt Knox Guitars, Vocals
Damian Herring Guitars, Vocals
Alex Kulick Bass




Technical info
(IMG:https://metalarea.org/images/spectrogram/2023_Aug/5b1d6f0e5f23e3a90092db76f6609e32.png)
Input File: 08. The Death Knell Ringeth.mp3
Channels : 2
Sample Rate : 44100
Precision : 16-bit
Duration : 00:05:19.18 = 14076014 samples = 23938.8 CDDA sectors
File Size : 12.8M
Bit Rate : 320k
Sample Encoding: MPEG audio (layer I, II or III)
Comments :
Title=The Death Knell Ringeth
Artist=Horrendous
Album=Ontological Mysterium
Tracknumber=08
Year=2023
Genre=Death/Black, Progressive Metal



Register


Go to the top of the page
  Insert nick Quick quote
+Quote Post
 
Start new topic
Replies (1 - 4)
post Aug 16 2023, 18:25:54
Post #2

Правь статус, ####!111
**************
Group: Металариец
Posts: 35,954
Releases: 26795
From: Г.Харьков
On Forums: 12 years 2 weeks
Thanks: 581284 time(s)
Ukraine


320 CD-rip 88 mb
Register

FLAC (Tracks) CD-Rip 286 mb
Register


Go to the top of the page
  Insert nick Quick quote
+Quote Post
post Aug 16 2023, 20:19:01
Post #3

Два Литра
**
Group: Завсегдатай
Posts: 186
Releases: 0
On Forums: 4 years 4 months
Thanks: 83 time(s)
Unknown


SeasonOfMist подписывает всякую бесталанную гадость из года в год. Кому то может и понравиться.
Go to the top of the page
  Insert nick Quick quote
+Quote Post
post Sep 21 2023, 12:57:08
Post #4

Правь статус, ####!111
**************
Group: Металариец
Posts: 4,841
Releases: 29
From: Holland
On Forums: 17 years 10 months
Thanks: 1942 time(s)
Netherlands


QUOTE(mightynorth @ Aug 17 2023, 05:19:01) *
SeasonOfMist подписывает всякую бесталанную гадость из года в год. Кому то может и понравиться.

Винил был заказан сразу после анонса его издания, так что да, кто-то - это я.
Интересно, кто же тогда таланный, если эти парняги нет?

Данный бэнд совместно с Morbus Chron (и может Blood Incantation) считаю гениальнейшими переосмыслителями олдскула. В начале своего пути еще такими были Tribulation, но слишком свернули в готику.

Собственно, альбом буду слушать бесчисленную кучу раз, и потом буду делать выводы.


Thanks:
Go to the top of the page
  Insert nick Quick quote
+Quote Post
post Sep 21 2023, 19:14:14
Post #5

кручу наждак
**************
Group: Металариец
Posts: 6,554
Releases: 111
From: Самара
On Forums: 14 years 2 weeks
Thanks: 5112 time(s)
Russian Federation


Прог-шмог завезли, дэт забыли.
И вообще я его походу с каким-то другим Хоррендусом перепутал.


Thanks:
(1) Occultas,
Go to the top of the page
  Insert nick Quick quote
+Quote Post

Reply to this topicStart new topic
1 User(s) are reading this topic (1 Guests and 0 Anonymous Users)
0 Members:

 



- Lo-Fi Version Support form
Copyrights and abuse reports form
Time is now: 28th May 2024 - 01:18:49