Welcome Guest ( Log In | Register )

Объявления

* gmail.com упорно продолжает считать почту с нас "unsolicited" и отбивает в том числе и письма активации, поэтому просьба использовать альтернативные почтовые ящики.
------------
* gmail.com continues reject all mail from us as "unsolicited" (activation mails too) therefore please use alternate mail servers.
> Bezdan - Satanska Kurva [single] (2021), Black/Thrash Metal (D4)
post Aug 17 2023, 08:29:59
Post #1

Литр
*
Group: Подсевший
Posts: 99
Releases: 10
On Forums: 12 years 11 months
Thanks: 138 time(s)
Croatia


(IMG:https://metalarea.org/images/audiocovers/2023_Aug/acov_tid385142_thumb.jpg)

*Artist: Bezdan
*Album: Satanska Kurva [single]
*Year: 2021
*Genre: Black/Thrash Metal
*Country: Croatia (IMG:https://metalarea.org/forum/style_images/flags/Croatia.png)
*Format: mp3@CBR320kbps
*Size: 8MB

Tracklist:
1. Satanska Kurva 03:33
******************************
Total playing time: 3:33



Extended info
Tape version contains three additional songs (covers):
2. Metal i pekel (KAT cover) 02:50
3. Necrophiliac (Slayer cover) 03:46
4. Crush, Kill, Destroy (Sarcófago cover) 05:25


Technical info
(IMG:https://metalarea.org/images/spectrogram/2023_Aug/e31178802815b9d99187b41191a5611d.png)
Input File: 01 Satanska kurva.mp3
Channels : 2
Sample Rate : 44100
Precision : 16-bit
Duration : 00:03:30.25 = 9271937 samples = 15768.6 CDDA sectors
File Size : 8.52M
Bit Rate : 324k
Sample Encoding: MPEG audio (layer I, II or III)
Comments :
Title=Satanska kurva
Artist=Bezdan
Album=Satanska kurva
Tracknumber=1
Year=2021
Genre=Black / Thrash Metal



Register


Go to the top of the page
  Insert nick Quick quote
+Quote Post
 
Start new topic
Replies (1 - 4)
post Aug 23 2023, 23:58:48
Post #2

0%Tolerance
**************
Group: Металариец
Posts: 2,989
Releases: 0
On Forums: 11 years 9 months
Thanks: 573 time(s)
Unknown


Сука Сотоны или сотонинская сука. (IMG:style_emoticons/default/1488.gif)
Нажористо хорваты исполнили в единственном числе в блэк трэш, хотя в таком ключе цельный полноформат мог бы и утомить.
Go to the top of the page
  Insert nick Quick quote
+Quote Post
post Jan 31 2024, 10:46:09
Post #3

Литр
*
Group: Подсевший
Posts: 99
Releases: 10
On Forums: 12 years 11 months
Thanks: 138 time(s)
Croatia


does anyone have the tape version of this single? with 3 additional cover songs
Go to the top of the page
  Insert nick Quick quote
+Quote Post
post Jan 31 2024, 12:16:45
Post #4

_ - = # Thrashogolic # = - _ ... а давайте поржём все вместе
**************
Group: Металариец
Posts: 22,639
Releases: 4444
From: 404
On Forums: 14 years 5 days
Thanks: 29273 time(s)
Ukraine


ЦИТАТА(Vitald @ Aug 24 2023, 00:58:48) *
Сука Сотоны или сотонинская сука. (IMG:style_emoticons/default/1488.gif)
Нажористо хорваты исполнили в единственном числе в блэк трэш, хотя в таком ключе цельный полноформат мог бы и утомить.
БЕЗ чего?)

(IMG:https://f4.bcbits.com/img/0023843919_9.jpg) (IMG:https://f4.bcbits.com/img/0023843921_9.jpg)
(HQ resolution by click to zoom)

100 copies of the cassette tape - limit edition!
Go to the top of the page
  Insert nick Quick quote
+Quote Post
post Apr 1 2024, 11:43:44
Post #5

Два Литра
**
Group: Завсегдатай
Posts: 114
Releases: 16
On Forums: 15 years 5 months
Thanks: 258 time(s)
Russian Federation


1 Satanska Kurva 3:33
2 Metal i Pekel (KAT cover) 2:50
3 Necrophiliac (Slayer cover) 3:46
4 Crush, Kill, Destroy (Sarcófago cover) 5:25

https://www.discogs.com/release/17475772-Be...-Satanska-Kurva


Thanks:
(1) Wail,
Go to the top of the page
  Insert nick Quick quote
+Quote Post

Reply to this topicStart new topic
2 User(s) are reading this topic (2 Guests and 0 Anonymous Users)
0 Members:

 



- Lo-Fi Version Support form
Copyrights and abuse reports form
Time is now: 20th June 2024 - 15:32:30