Welcome Guest ( Log In | Register )

 
Reply to this topicStart new topic
> Lacrimas Profundere - Keine Lust [single] (2023), Gothic Metal (D)
post Aug 23 2023, 16:24:57
Post #1

ЗаDOOMчивый
**************
Group: Металариец
Posts: 2,278
Releases: 64
From: Cradlовская обл., г. Нижний Gorgoroth, р-н Doom-о-Deathово
On Forums: 15 years 3 months
Thanks: 2156 time(s)
Russian Federation


(IMG:https://metalarea.org/images/audiocovers/2023_Aug/acov_tid385362_thumb.jpg)

*Artist: Lacrimas Profundere
*Album: Keine Lust [single]
*Year: 2023
*Genre: Gothic Metal
*Country: Germany (IMG:https://metalarea.org/forum/style_images/flags/Germany.png)
*Format: mp3@CBR320kbps
*Size: 9MB

Tracklist:
01. Keine Lust (Rammstein Cover) 03:50
******************************
Total playing time: 3:50

Technical info
(IMG:https://metalarea.org/images/spectrogram/2023_Aug/8f001dbbf5b3ab1065743c709f61dd63.png)
Input File: 01 - Keine Lust (Rammstein Cover).mp3
Channels : 2
Sample Rate : 44100
Precision : 16-bit
Duration : 00:03:50.00 = 10143000 samples = 17250 CDDA sectors
File Size : 9.36M
Bit Rate : 325k
Sample Encoding: MPEG audio (layer I, II or III)
Comments :
Title=Keine Lust (Rammstein Cover)
Artist=Lacrimas Profundere
Album=Keine Lust (Single)
Tracknumber=01/01
Year=2023-08-07
Genre=Gothic Metal



Register


Go to the top of the page
  Insert nick Quick quote
+Quote Post
post Sep 19 2023, 13:24:39
Post #2

Ъ
**************
Group: Металариец
Posts: 11,214
Releases: 9
On Forums: 15 years 1 month
Thanks: 2274 time(s)
Sweden


Ну такое, оригинал понятно лучше гораздо.
Go to the top of the page
  Insert nick Quick quote
+Quote Post

Reply to this topicStart new topic
1 User(s) are reading this topic (1 Guests and 0 Anonymous Users)
0 Members:

 



- Lo-Fi Version Support form
Copyrights and abuse reports form
Time is now: 29th February 2024 - 03:31:43