Welcome Guest ( Log In | Register )

> Exmortus - Necrophony (2023), Progressive Thrash Metal
post Aug 24 2023, 13:36:33
Post #1

Правь статус, ####!111
**************
Group: Металариец
Posts: 34,380
Releases: 25524
From: Г.Харьков
On Forums: 11 years 6 months
Thanks: 546238 time(s)
Ukraine


(IMG:https://metalarea.org/images/audiocovers/2023_Aug/acov_tid385400_thumb.jpg)

*Artist: Exmortus
*Album: Necrophony
*Year: 2023
*Genre: Progressive Thrash Metal
*Country: United States (IMG:https://metalarea.org/forum/style_images/flags/United%20States.png)
*Format: mp3@CBR320kbps
*Size: 129MB

Tracklist:
1. Masquerade 02:33
2. Mask of Red Death 04:42
3. Oathbreaker 03:24
4. Mind of Metal 04:33
5. Storm of Strings 02:55 instrumental
6. Test of Time 04:48
7. Darkest of Knights 08:11
8. Prophecy 04:14
9. Children of the Night 07:13
10. Beyond the Grave 03:48
11. Overture 02:05
12. Necrophony 05:10
******************************
Total playing time: 53:36



Extended info
Jadran "Conan" Gonzalez Guitars, Vocals
Phillip Nuñez Bass
Adrian Aguilar Drums
Chase Becker Guitars



Technical info
(IMG:https://metalarea.org/images/spectrogram/2023_Aug/2413b6159158fb3254f3c16ade63b494.png)
Input File: 07. Darkest Of Knights.mp3
Channels : 2
Sample Rate : 44100
Precision : 16-bit
Duration : 00:08:11.91 = 21693319 samples = 36893.4 CDDA sectors
File Size : 20.3M
Bit Rate : 330k
Sample Encoding: MPEG audio (layer I, II or III)
Comments :
Title=Darkest Of Knights
Artist=Exmortus
Album=Necrophony
Tracknumber=7/12/12
Year=2023
Discnumber=1/1/1



Register


Go to the top of the page
  Insert nick Quick quote
+Quote Post
 
Start new topic
Replies (1 - 5)
post Aug 24 2023, 20:18:50
Post #2

MDM-Thrash Metal
**************
Group: Металариец
Posts: 12,117
Releases: 1691
From: Одесса
On Forums: 16 years 3 months
Thanks: 39525 time(s)
Ukraine


А вот это очень интересно.
После первой прослушки альбом зашел, да нет, просто залетел! Прекрасный материал, быстрый, четкий, без провалов в середине, ровненький от первого и до последнего трека. Однозначно в список лучших альбомов за год. (IMG:style_emoticons/default/20.gif)


Thanks:
Go to the top of the page
  Insert nick Quick quote
+Quote Post
post Aug 25 2023, 07:38:02
Post #3

к приему виски готов
*********
Group: Металариец
Posts: 949
Releases: 3
From: Украина
On Forums: 14 years 9 months
Thanks: 558 time(s)
Ukraine


Блин, а мне не зашел альбом (IMG:style_emoticons/default/13.gif)
Качественно, мелодично, технично, но как то без огонька. И похоже самоплагиатят.
Go to the top of the page
  Insert nick Quick quote
+Quote Post
post Aug 25 2023, 17:36:33
Post #4

Common dweller of hell
**************
Group: Металариец
Posts: 5,075
Releases: 12
From: Dnipro
On Forums: 15 years 4 months
Thanks: 2053 time(s)
Ukraine


Они ведь раньше вроде неоклассический melodic death играли, по крайней мере на альбоме 2008 года


Новый альбом как по мне это копирка с Arch Enemy средних годов с Angela Gossow, Progressive Thrash Metal не услышал,
больше напоминает Melodic Death/Thrash Metal





Go to the top of the page
  Insert nick Quick quote
+Quote Post
post Sep 4 2023, 09:57:29
Post #5

Common dweller of hell
**************
Group: Металариец
Posts: 5,075
Releases: 12
From: Dnipro
On Forums: 15 years 4 months
Thanks: 2053 time(s)
Ukraine


Кстати после нескольких прослушиваний альбом сдается мне просто на отлично. (IMG:style_emoticons/default/20.gif)
Go to the top of the page
  Insert nick Quick quote
+Quote Post
post Sep 21 2023, 03:49:26
Post #6
BAN
Banned till
Dec 23 2023, 17:56:05



Первые несколько треков хороши включительно до инструментал митол темы (в оригинале на композицию Вивальди), ну ещё после один трек тоже норм. Дальше пошло какое-то полуп0вер дpочилово.
Go to the top of the page
  Insert nick Quick quote
+Quote Post

Reply to this topicStart new topic
1 User(s) are reading this topic (1 Guests and 0 Anonymous Users)
0 Members:

 



- Lo-Fi Version Support form
Copyrights and abuse reports form
Time is now: 6th December 2023 - 19:36:18