Welcome Guest ( Log In | Register )

> Triple Kill - Blackened Dawn (2023), Melodic Thrash/Power Metal
post Aug 24 2023, 23:38:31
Post #1

Правь статус, ####!111
**************
Group: Металариец
Posts: 34,411
Releases: 25550
From: Г.Харьков
On Forums: 11 years 7 months
Thanks: 546770 time(s)
Ukraine


(IMG:https://metalarea.org/images/audiocovers/2023_Aug/acov_tid385441_thumb.jpg)

*Artist: Triple Kill
*Album: Blackened Dawn
*Year: 2023
*Genre: Melodic Thrash/Power Metal
*Country: Australia (IMG:https://metalarea.org/forum/style_images/flags/Australia.png)
*Format: mp3@CBR320kbps
*Size: 96MB

Tracklist:
1. Blackened Dawn 06:03
2. ...And Hell Followed With Him 04:22
3. Shai-Hulud 04:00
4. Weight of Eternia 04:07
5. Torn 04:08
6. The Grafted 05:11
7. Finish the Fight 04:37
8. Hymn, At Parting 04:37
9. Dust 04:42
******************************
Total playing time: 41:47




Extended info
Efun White Bass
See also: ex-Beast Impalor
Connor O'Keane Drums
See also: ex-Cyanide Teeth
Anthony Commane Guitars
See also: ex-Black Mayday
Daniel Mackie Guitars
Rodney Goolagong Vocals
See also: ex-Black Mayday



Technical info
(IMG:https://metalarea.org/images/spectrogram/2023_Aug/7cc2930d478ff1d85dc929ef44d03ff6.png)
Input File: 07 - Finish the Fight.mp3
Channels : 2
Sample Rate : 44100
Precision : 16-bit
Duration : 00:04:33.00 = 12039300 samples = 20475 CDDA sectors
File Size : 11.0M
Bit Rate : 323k
Sample Encoding: MPEG audio (layer I, II or III)
Comments :
Title=Finish the Fight
Artist=Triple Kill
Album=Blackened Dawn
Tracknumber=7
Year=2023-08-25
Genre=Alternative
Discnumber=1



Register


Go to the top of the page
  Insert nick Quick quote
+Quote Post
 
Start new topic
Replies (1 - 2)
post Aug 28 2023, 09:13:31
Post #2

Добрый язычник
**********
Group: Металариец
Posts: 1,049
Releases: 11
From: Санкт-Петербург
On Forums: 18 years 1 day
Thanks: 339 time(s)
Russian Federation


Я бы добавил Прогрессив в стиле.


Thanks:
(1) Andrew,
Go to the top of the page
  Insert nick Quick quote
+Quote Post
post Aug 28 2023, 20:04:33
Post #3

Восемь Литров
********
Group: Металариец
Posts: 869
Releases: 3
From: Украина
On Forums: 5 years 4 months
Thanks: 444 time(s)
Ukraine


Понравился. Спасибо!


Thanks:
Go to the top of the page
  Insert nick Quick quote
+Quote Post

Reply to this topicStart new topic
2 User(s) are reading this topic (2 Guests and 0 Anonymous Users)
0 Members:

 



- Lo-Fi Version Support form
Copyrights and abuse reports form
Time is now: 9th December 2023 - 12:38:19