Welcome Guest ( Log In | Register )

Объявления

* gmail.com упорно продолжает считать почту с нас "unsolicited" и отбивает в том числе и письма активации, поэтому просьба использовать альтернативные почтовые ящики.
------------
* gmail.com continues reject all mail from us as "unsolicited" (activation mails too) therefore please use alternate mail servers.
> Stygian Fair - Aradia (2023), Epic Heavy Metal/Hard Rock (D4)
post Aug 25 2023, 00:48:18
Post #1

Правь статус, ####!111
**************
Group: Металариец
Posts: 8,958
Releases: 7194
On Forums: 13 years 6 months
Thanks: 126841 time(s)
Italy


(IMG:https://metalarea.org/images/audiocovers/2023_Aug/acov_tid385448_thumb.jpg)

*Artist: Stygian Fair
*Album: Aradia
*Year: 2023
*Genre: Epic Heavy Metal/Hard Rock
*Country: Sweden (IMG:https://metalarea.org/forum/style_images/flags/Sweden.png)
*Format: mp3@CBR320kbps
*Size: 102MB

Tracklist:
1.Ancient Lies 04:02
2.Masters of the Sea 04:06
3.Aradia 04:57
4.Tapping of the Vein 03:43
5.Let It go 04:02
6.Panoptikon 03:44
7.Unto Oblivion 03:40
8.Grief Collector 05:04
9.Tainted Dream 03:22
10.Devil in the Details 04:16
******************************
Total playing time: 40:56




Technical info
(IMG:https://metalarea.org/images/spectrogram/2023_Aug/89d4b0a060d150a9a859d4e1ce7b4b32.png)
Input File: 04 - Tapping Of The Vein.mp3
Channels : 2
Sample Rate : 44100
Precision : 16-bit
Duration : 00:03:43.52 = 9857056 samples = 16763.7 CDDA sectors
File Size : 9.22M
Bit Rate : 330k
Sample Encoding: MPEG audio (layer I, II or III)
Comments :
Title=Tapping Of The Vein
Artist=Stygian Fair
Album=Aradia
Tracknumber=4/10
Year=2023
Discnumber=1/1



Register


Go to the top of the page
  Insert nick Quick quote
+Quote Post
 
Start new topic
Replies (1 - 3)
post Aug 25 2023, 07:51:14
Post #2

MDM-Thrash Metal
**************
Group: Металариец
Posts: 12,452
Releases: 1742
From: Одесса
On Forums: 16 years 9 months
Thanks: 40449 time(s)
Ukraine



Не характерно для шведов: слишком однообразно-монотонно-среднетемпово.
Go to the top of the page
  Insert nick Quick quote
+Quote Post
post Aug 25 2023, 07:59:17
Post #3

Восемь Литров
********
Group: Металариец
Posts: 848
Releases: 0
On Forums: 14 years 10 months
Thanks: 211 time(s)
Ukraine


спасибо большое!!
Go to the top of the page
  Insert nick Quick quote
+Quote Post
post Aug 28 2023, 09:11:25
Post #4

Добрый язычник
**********
Group: Металариец
Posts: 1,057
Releases: 11
From: Санкт-Петербург
On Forums: 18 years 5 months
Thanks: 339 time(s)
Russian Federation


Только вокал хорош, по музыке ОЧЕНЬ скучно.
Go to the top of the page
  Insert nick Quick quote
+Quote Post

Reply to this topicStart new topic
1 User(s) are reading this topic (1 Guests and 0 Anonymous Users)
0 Members:

 



- Lo-Fi Version Support form
Copyrights and abuse reports form
Time is now: 29th May 2024 - 09:13:12