Welcome Guest ( Log In | Register )

Объявления

* gmail.com упорно продолжает считать почту с нас "unsolicited" и отбивает в том числе и письма активации, поэтому просьба использовать альтернативные почтовые ящики.
------------
* gmail.com continues reject all mail from us as "unsolicited" (activation mails too) therefore please use alternate mail servers.
> Kaine - Extinction After [ep] (2023), Heavy Metal (D9)
post Aug 25 2023, 01:14:21
Post #1

Правь статус, 616
**************
Group: Металариец
Posts: 11,047
Releases: 8998
From: 55°35’N 38°08’E
On Forums: 16 years 2 weeks
Thanks: 160251 time(s)
Russian Federation


(IMG:https://metalarea.org/images/audiocovers/2023_Aug/acov_tid385450_thumb.jpg)

*Artist: Kaine
*Album: Extinction After [ep]
*Year: 2023
*Genre: Heavy Metal
*Country: United Kingdom (IMG:https://metalarea.org/forum/style_images/flags/United%20Kingdom.png)
*Format: mp3@CBR320kbps
*Size: 63MB

Tracklist:
1.Evil I (All Hail the Evil One) 08:23
2.Evil II (Evil Too) 05:25
3.Dragonlord 05:59
4.Birmingham Blues 04:44
5.On Repeat 02:24
******************************
Total playing time: 26:55



(IMG:https://metalarea.org/images/youtube.png)

Extended info
EP features 5 songs not included on the After Extinction album.


Technical info
(IMG:https://metalarea.org/images/spectrogram/2023_Aug/47f68f9aeb1d7d97d01c0adb73eb733d.png)
Input File: 01 Evil I (All Hail the Evil One).mp3
Channels : 2
Sample Rate : 44100
Precision : 16-bit
Duration : 00:08:23.36 = 22198088 samples = 37751.9 CDDA sectors
File Size : 20.4M
Bit Rate : 324k
Sample Encoding: MPEG audio (layer I, II or III)
Comments :
Title=Evil I (All Hail the Evil One)
Artist=Kaine
Album=Extinction After EP
Tracknumber=1
Year=2023
Genre=Heavy Metal



Register


Go to the top of the page
  Insert nick Quick quote
+Quote Post
 
Start new topic
Replies (1 - 2)
post Aug 25 2023, 01:52:28
Post #2

Правь статус, 616
**************
Group: Металариец
Posts: 11,047
Releases: 8998
From: 55°35’N 38°08’E
On Forums: 16 years 2 weeks
Thanks: 160251 time(s)
Russian Federation


Зеркало

Register


Thanks:
(1) Reverend,
Go to the top of the page
  Insert nick Quick quote
+Quote Post
post Aug 25 2023, 01:53:00
Post #3

Dr.
**************
Group: Металариец
Posts: 5,371
Releases: 0
From: Primorye.ru
On Forums: 13 years 4 months
Thanks: 1126 time(s)
Russian Federation


Somewhere it reminds me of Iron Maiden.And they do it well.Liked it


Thanks:
(1) Dante_D,
Go to the top of the page
  Insert nick Quick quote
+Quote Post

Reply to this topicStart new topic
2 User(s) are reading this topic (2 Guests and 0 Anonymous Users)
0 Members:

 



- Lo-Fi Version Support form
Copyrights and abuse reports form
Time is now: 23rd July 2024 - 06:03:50