Welcome Guest ( Log In | Register )

Объявления

* gmail.com упорно продолжает считать почту с нас "unsolicited" и отбивает в том числе и письма активации, поэтому просьба использовать альтернативные почтовые ящики.
------------
* gmail.com continues reject all mail from us as "unsolicited" (activation mails too) therefore please use alternate mail servers.
> Salekhard - С Востока На Запад (2023), Atmospheric Black Metal/Ambient
post Aug 27 2023, 13:54:49
Post #1

Правь статус, ####!111
**************
Group: Металариец
Posts: 55,982
Releases: 1201
On Forums: 14 years 11 months
Thanks: 54860 time(s)
Russian Federation


(IMG:https://metalarea.org/images/audiocovers/2023_Aug/acov_tid385523_thumb.jpg)

*Artist: Salekhard
*Album: С Востока На Запад
*Year: 2023
*Genre: Atmospheric Black Metal/Ambient
*Country: Belarus (IMG:https://metalarea.org/forum/style_images/flags/Belarus.png)
*Format: mp3@CBR320kbps
*Size: 83MB

Tracklist:
1. Голос Ямала
2. Поезда
3. Ночь В Харпе
4. Старые Боги Северных Земель
5. Через Уральские Хребты
******************************
Total playing time: 36:26

Technical info
(IMG:https://metalarea.org/images/spectrogram/2023_Aug/4ad1bd907cfe6ffede4b87f30eb2e19f.png)
Input File: 01 Голос Ямала.mp3
Channels : 2
Sample Rate : 44100
Precision : 16-bit
Duration : 00:09:32.64 = 25253380 samples = 42947.9 CDDA sectors
File Size : 22.9M
Bit Rate : 320k
Sample Encoding: MPEG audio (layer I, II or III)
Comments :
Title=Голос Ямала
Artist=Salekhard
Album=С Востока На Запад
Tracknumber=1
Year=2023
Genre=Atmospheric Black Metal / Ambient / Instrumental



Register


Go to the top of the page
  Insert nick Quick quote
+Quote Post
 
Start new topic
Replies (1 - 3)
post Aug 27 2023, 15:25:31
Post #2

Два Литра
**
Group: Завсегдатай
Posts: 167
Releases: 0
On Forums: 15 years 3 weeks
Thanks: 144 time(s)
Bulgaria


https://mega.nz/file/7jRiAZpY#ELdswd4wzmCNu...X6ZMSodhtQJfmZM


Thanks:
Go to the top of the page
  Insert nick Quick quote
+Quote Post
post Aug 27 2023, 18:04:59
Post #3

The Kold One
**
Group: Завсегдатай
Posts: 110
Releases: 1
On Forums: 15 years 2 weeks
Thanks: 72 time(s)
Serbia




Thanks:
Go to the top of the page
  Insert nick Quick quote
+Quote Post
post Aug 28 2023, 08:57:13
Post #4

Добрый язычник
**********
Group: Металариец
Posts: 1,057
Releases: 11
From: Санкт-Петербург
On Forums: 18 years 5 months
Thanks: 339 time(s)
Russian Federation


Странно видеть из Беларуси такое название. А по музыке - гамно.
Go to the top of the page
  Insert nick Quick quote
+Quote Post

Reply to this topicStart new topic
1 User(s) are reading this topic (1 Guests and 0 Anonymous Users)
0 Members:

 



- Lo-Fi Version Support form
Copyrights and abuse reports form
Time is now: 29th May 2024 - 10:43:56